Tags
Language
Tags

Denny Zeitlin - Telepathy (2021) [Official Digital Download 24/96]

Posted By: pyatak
Denny Zeitlin - Telepathy (2021) [Official Digital Download 24/96]

Denny Zeitlin - Telepathy (2021) [Official Digital Download 24/96]
FLAC (tracks) 24-bit/96 kHz | Front Cover | Time - 76;29 minutes | 1,4 GB
Jazz | Label: Sunnyside, Official Digital Download

True improvisers always seek new avenues and vehicles to inspire themselves in their art. Keyboard master Denny Zeitlin and percussion guru George Marsh have continued to push their musical dialogs to near telepathic levels utilizing their long-honed rapport and technological advancements to propel their music into new, enlivening places. Their new recording, Telepathy, continues their journey into the endless world of improvisation.

The Bay Area based Zeitlin and Marsh have worked alongside of each other since the 1960s. Together, they have explored the farthest reaches of numerous musical styles, from jazz and classical to rock, electronics and free improvisation. These decades of working together have cemented a bond and musical language that is unbreakable, but also one that continues to evolve.

Since 2013, the two artists have met regularly at Zeitlin’s Double Helix Studio at his home. The meetings happen every two to three months and are always recorded for posterity. The studio houses percussion and drum set along with Zeitlin’s Steinway piano, and an astonishing array of keyboards, computers, monitors, pedals, breath controllers and electronics.

TRACKLIST

1. Denny Zeitlin - Highlands
2. Denny Zeitlin - Quicksilver
3. Denny Zeitlin - Hatching
4. Denny Zeitlin - Black Hole
5. Denny Zeitlin - Moon Flower
6. Denny Zeitlin - Boiling Point
7. Denny Zeitlin - On the Move
8. Denny Zeitlin - Disagree to Agree
9. Denny Zeitlin - If Only
10. Denny Zeitlin - Hadron Collider
11. Denny Zeitlin - The Ascent
12. Denny Zeitlin - Odyssey
13. Denny Zeitlin - Maze
14. Denny Zeitlin - Fillmore Dreams

foobar2000 1.6.2 / Dynamic Range Meter 1.1.1
log date: 2021-06-25 18:15:34

––––––––––––––––––––––––––––––––––––––––
Analyzed: Denny Zeitlin / Telepathy
––––––––––––––––––––––––––––––––––––––––

DR Peak RMS Duration Track
––––––––––––––––––––––––––––––––––––––––
DR11 -0.20 dB -13.53 dB 6:08 01-Highlands
DR14 -0.30 dB -17.67 dB 5:45 02-Quicksilver
DR17 -0.20 dB -19.65 dB 3:50 03-Hatching
DR14 -0.20 dB -19.52 dB 3:32 04-Black Hole
DR13 -0.20 dB -16.99 dB 3:36 05-Moon Flower
DR16 -0.10 dB -18.95 dB 4:08 06-Boiling Point
DR11 -0.10 dB -13.93 dB 5:32 07-On the Move
DR13 -0.10 dB -15.94 dB 8:23 08-Disagree to Agree
DR13 -0.10 dB -17.49 dB 4:53 09-If Only
DR11 -0.10 dB -14.68 dB 5:00 10-Hadron Collider
DR14 -0.10 dB -17.13 dB 5:43 11-The Ascent
DR13 -0.40 dB -15.74 dB 10:49 12-Odyssey
DR12 -0.10 dB -17.11 dB 4:23 13-Maze
DR12 -0.10 dB -14.55 dB 4:54 14-Fillmore Dreams
––––––––––––––––––––––––––––––––––––––––

Number of tracks: 14
Official DR value: DR13

Samplerate: 96000 Hz
Channels: 2
Bits per sample: 24
Bitrate: 2594 kbps
Codec: FLAC
================================================================================



Thanks to the Original customer.