Tags
Language
Tags

Diana Boyle - Bach: Works for Keyboard (2019) [Official Digital Download 24/96]

Posted By: SERTiL
Diana Boyle - Bach: Works for Keyboard (2019) [Official Digital Download 24/96]

Diana Boyle - Bach: Works for Keyboard (2019)
FLAC (tracks) 24-bit/96 kHz | Time - 84:13 minutes | 1.27 GB
Studio Master, Official Digital Download | Artwork: Digital Booklet

Diana Boyle is a fine pianist who records little but prepares each recording with years of thought, consideration and meditation on the music. Her interpretations are individual and thought-provoking, often delicate, not always conforming to the norm which pianists of lesser talent will follow, but looking to breathe new life and spirit into classic masterpieces. Her previous Divine Art albums have been very popular and highly praised. Like all of Boyles work these new recordings are very carefully prepared and well crafted performances which do not fear to display real feeling and depth, not at all like the all too common mechanical performances of Baroque music. The works themselves are not all among Bachs best known, but all display his total mastery of the art of composition.

Tracklist:

CD1
1 Overture in the French Style, BWV 831: I. Overture 14:22
2 Overture in the French Style, BWV 831: II. Courante 01:49
3 Overture in the French Style, BWV 831: III. Gavotte I 01:47
4 Overture in the French Style, BWV 831: IV. Gavotte II 01:40
5 Overture in the French Style, BWV 831: V. Da capo to Gavotte I 01:11
6 Overture in the French Style, BWV 831: VI. Passepied I 01:20
7 Overture in the French Style, BWV 831: VII. Passepied II 01:34
8 Overture in the French Style, BWV 831: VIII. Da capo to Passepied I 01:16
9 Overture in the French Style, BWV 831: IX. Sarabande 04:10
10 Overture in the French Style, BWV 831: X. Bourrée I 01:36
11 Overture in the French Style, BWV 831: XI. Bourrée II 01:08
12 Overture in the French Style, BWV 831: XII. Gigue 02:24
13 Overture in the French Style, BWV 831: XIII. Echo 02:29

CD2
1 French Suite No. 1 in D Minor, BWV 812: I. Allemande 03:44
2 French Suite No. 1 in D Minor, BWV 812: II. Courante 02:57
3 French Suite No. 1 in D Minor, BWV 812: III. Sarabande 05:04
4 French Suite No. 1 in D Minor, BWV 812: IV. Menuet I 01:53
5 French Suite No. 1 in D Minor, BWV 812: V. Menuet II 01:31
6 French Suite No. 1 in D Minor, BWV 812: VI. Da capo to Menuet I 01:04
7 French Suite No. 1 in D Minor, BWV 812: VII. Gigue 03:13
8 15 Sinfonias (Excerpts): No. 5 in E-Flat Major, BWV 791 04:01
9 15 Sinfonias (Excerpts): No. 11 in G Minor, BWV 797 03:03
10 15 Sinfonias (Excerpts): No. 4 in D Minor, BWV 790 02:21
11 15 Sinfonias (Excerpts): No. 13 in A Minor, BWV 799 01:55
12 15 Sinfonias (Excerpts): No. 8 in F Major, BWV 794 01:54
13 15 Sinfonias (Excerpts): No. 7 in E Minor, BWV 793 03:35
14 15 Sinfonias (Excerpts): No. 6 in E Major, BWV 792 02:30
15 15 Sinfonias (Excerpts): No. 12 in A Major, BWV 798 02:14
16 15 Sinfonias (Excerpts): No. 9 in F Minor, BWV 795 06:28

foobar2000 1.3.7 / Dynamic Range Meter 1.1.1
log date: 2019-06-21 14:21:52

––––––––––––––––––––––––––––––––––––––––
Analyzed: Diana Boyle / Bach: Works for Keyboard
––––––––––––––––––––––––––––––––––––––––

DR Peak RMS Duration Track
––––––––––––––––––––––––––––––––––––––––
DR15 -0.20 dB -20.59 dB 14:23 01-Overture in the French Style, BWV 831: I. Overture
DR12 -1.66 dB -20.67 dB 1:49 02-Overture in the French Style, BWV 831: II. Courante
DR13 -5.69 dB -24.08 dB 1:48 03-Overture in the French Style, BWV 831: III. Gavotte I
DR11 -7.51 dB -23.86 dB 1:40 04-Overture in the French Style, BWV 831: IV. Gavotte II
DR12 -6.52 dB -25.51 dB 1:11 05-Overture in the French Style, BWV 831: V. Da capo to Gavotte I
DR12 -8.48 dB -25.07 dB 1:21 06-Overture in the French Style, BWV 831: VI. Passepied I
DR14 -3.47 dB -23.12 dB 1:35 07-Overture in the French Style, BWV 831: VII. Passepied II
DR11 -9.75 dB -26.74 dB 1:17 08-Overture in the French Style, BWV 831: VIII. Da capo to Passepied I
DR14 -10.27 dB -29.43 dB 4:11 09-Overture in the French Style, BWV 831: IX. Sarabande
DR11 -8.66 dB -23.34 dB 1:36 10-Overture in the French Style, BWV 831: X. Bourrée I
DR11 -6.93 dB -22.37 dB 1:08 11-Overture in the French Style, BWV 831: XI. Bourrée II
DR14 -3.08 dB -23.76 dB 2:25 12-Overture in the French Style, BWV 831: XII. Gigue
DR16 -0.29 dB -19.89 dB 2:29 13-Overture in the French Style, BWV 831: XIII. Echo
DR14 -8.28 dB -29.89 dB 3:44 14-French Suite No. 1 in D Minor, BWV 812: I. Allemande
DR13 -9.23 dB -27.65 dB 2:58 15-French Suite No. 1 in D Minor, BWV 812: II. Courante
DR16 -9.45 dB -32.37 dB 5:05 16-French Suite No. 1 in D Minor, BWV 812: III. Sarabande
DR12 -8.61 dB -25.56 dB 1:53 17-French Suite No. 1 in D Minor, BWV 812: IV. Menuet I
DR12 -6.17 dB -22.00 dB 1:32 18-French Suite No. 1 in D Minor, BWV 812: V. Menuet II
DR11 -9.34 dB -26.27 dB 1:05 19-French Suite No. 1 in D Minor, BWV 812: VI. Da capo to Menuet I
DR14 -0.54 dB -19.16 dB 3:14 20-French Suite No. 1 in D Minor, BWV 812: VII. Gigue
DR14 -8.07 dB -30.76 dB 4:01 21-15 Sinfonias (Excerpts): No. 5 in E-Flat Major, BWV 791
DR15 -2.13 dB -26.72 dB 3:04 22-15 Sinfonias (Excerpts): No. 11 in G Minor, BWV 797
DR13 -6.73 dB -25.01 dB 2:22 23-15 Sinfonias (Excerpts): No. 4 in D Minor, BWV 790
DR15 -2.61 dB -22.58 dB 1:55 24-15 Sinfonias (Excerpts): No. 13 in A Minor, BWV 799
DR13 -2.00 dB -20.19 dB 1:54 25-15 Sinfonias (Excerpts): No. 8 in F Major, BWV 794
DR15 -7.12 dB -27.00 dB 3:36 26-15 Sinfonias (Excerpts): No. 7 in E Minor, BWV 793
DR12 -7.87 dB -25.03 dB 2:30 27-15 Sinfonias (Excerpts): No. 6 in E Major, BWV 792
DR13 -1.03 dB -18.98 dB 2:14 28-15 Sinfonias (Excerpts): No. 12 in A Major, BWV 798
DR16 -7.61 dB -32.36 dB 6:28 29-15 Sinfonias (Excerpts): No. 9 in F Minor, BWV 795
––––––––––––––––––––––––––––––––––––––––

Number of tracks: 29
Official DR value: DR13

Samplerate: 88200 Hz
Channels: 2
Bits per sample: 24
Bitrate: 2073 kbps
Codec: FLAC
================================================================================


Thanks to the Original customer.