Tags
Language
Tags

Diana Panton - To Brazil with Love (Remastered) (2011/2019) [Official Digital Download 24/96]

Posted By: SERTiL
Diana Panton - To Brazil with Love (Remastered) (2011/2019) [Official Digital Download 24/96]

Diana Panton - To Brazil with Love (Remastered) (2011/2019)
FLAC (tracks) 24-bit/96 kHz | Time - 61:54 minutes | 1.29 GB
Studio Master, Official Digital Download | Artwork: Digital Booklet

Diana Panton was discovered by the Canadian multi-instrumentalist Don Thompson at the tender age of 19. He recommended her for a workshop at the Banff Center for The Arts where she studied singing under the tutorship of Norma Winstone, Sheila Jordan and Jay Clayton. Before her first album, she completed her master’s degree in French literature. During her appearances in clubs and at festivals – in Europe and on the American continent – she conjures up “tiny masterpieces created before your very ears” in the words of author Hugh Fraser.

Diana Panton sprinkles charming details over her velvety jazz, that lift it into another realm. She has already been nominated three times for the Juno Award (the Canadian counterpart to the Grammy Awards) and has received high praise from colleagues like the American jazz diva Sheila Jordan: “Diana’s voice sounds like the sweetest bird you'll ever hear.”

On her album “To Brazil With Love”, Diana Panton pays stylish tribute to the musical traditions of Brazil – the Samba and Bossa Nova. In addition to classics of the genre, she also takes a look at those musical offshoots that have influenced British pop, French chansons and jazz. Diana Panton interprets these evergreens in a way that is smooth and sensitive but never sentimental. She sings in English and French and creates a superb balance between charming French coquetry, Brazilian lightness and British understatement.

„Each delightful track is an exquisitely manicured musical facet, set firmly in the Brazilian idiom and seamlessly sung in French and English by Panton. Her diaphanous vocal never insists and her high speed vibrato is like the beat of a hummingbird's heart - natural, untainted and pure.“ (Lesley Mitchell-Clarke, Wholenote Magazine)

Tracklist:
01. Samba Saravah
02. This Happy Madness
03. The Telephone Song
04. Manha De Carnaval
05. So Nice
06. Is It Really You?
07. The Night Has A Thousand Eyes
08. Dans Mon Ile
09. Felicidade
10. Tu Sais Je Vais T'aimer
11. Dreamer
12. And I Love Him
13. Fais Comme L'oiseau
14. Que Reste-t-il De Nos Amoure?

Personnel:
Diana Panton, vocals
Maninho Costa, vocals, drums, percussion
Bill McBirnie, flute
Kiki Misumi, cello
Reg Schwager, guitar
Silas Silva, drums, percussion
Don Thompson, bass, piano, vibraphone

Digitally remastered

foobar2000 1.3.7 / Dynamic Range Meter 1.1.1
log date: 2019-03-01 12:09:33

––––––––––––––––––––––––––––––––––––––––
Analyzed: Diana Panton / Diana Panton: To Brazil with Love (Remastered)
––––––––––––––––––––––––––––––––––––––––

DR Peak RMS Duration Track
––––––––––––––––––––––––––––––––––––––––
DR9 -1.87 dB -13.41 dB 4:02 01-Samba Saravah
DR10 -2.24 dB -13.61 dB 4:05 02-This Happy Madness
DR10 -1.94 dB -13.46 dB 1:55 03-The Telephone Song (Telefone)
DR9 -2.13 dB -13.72 dB 5:24 04-Manha de Carnaval (Morning of the Carnival)
DR10 -2.07 dB -13.57 dB 3:29 05-So Nice (Summer Samba)
DR10 -2.13 dB -13.59 dB 4:23 06-Is It Really You?
DR9 -2.25 dB -13.41 dB 4:03 07-The Night Has a Thousand Eyes
DR9 -2.06 dB -13.04 dB 5:28 08-Dans mon ile
DR9 -2.00 dB -12.77 dB 4:44 09-Felicidade
DR9 -2.25 dB -14.08 dB 4:23 10-Tu sais je vais t'aimer
DR9 -1.94 dB -12.95 dB 3:43 11-Dreamer (Vivo Sonhando)
DR9 -3.35 dB -16.10 dB 4:45 12-And I Love Him
DR9 -1.74 dB -13.41 dB 4:41 13-Fais comme l'oiseau
DR9 -2.52 dB -14.06 dB 6:56 14-Que reste-t-il de nos amours?
––––––––––––––––––––––––––––––––––––––––

Number of tracks: 14
Official DR value: DR9

Samplerate: 96000 Hz
Channels: 2
Bits per sample: 24
Bitrate: 2971 kbps
Codec: FLAC
================================================================================


Thanks to the Original customer.