Diethelm, Haug, Gmünder, Perler, Romer, Rushton - Florent Schmitt - Mélodies (2020) [Official Digital Download 24/96]

Posted By: pyatak
Diethelm, Haug, Gmünder, Perler, Romer, Rushton - Florent Schmitt - Mélodies (2020) [Official Digital Download 24/96]

Diethelm, Haug, Gmünder, Perler, Romer, Rushton - Florent Schmitt- Mélodies (2020) [Official Digital Download 24/96]
FLAC (tracks) 24-bit/96 kHz | Front Cover | Time - 01:12:20 minutes | 980 MB
Classical | Label: Resonus Classics, Official Digital Download

Rarely heard on disc, the songs of Florent Schmitt receive fresh exposure in this significant new survey of these neglected works including a number of world premiere recordings.

The qualities that appeal in many of Schmitt's larger works are found in abundance in this selection that spans his entire creative life: his music’s gorgeous sensuality, biting wit, laconic charm, and unleashed savagery.

Pianists Fabienne Romer and Edward Rushton along with an outstanding lineup of soloists, explore this rich seam of complex compositional techniques, revealing a composer of extraordinary individuality along with a fascinating affinity with the darker side of human existence.

TRACKLIST

1. Diethelm, Haug, Gmünder, Perler, Romer, Rushton - Chansons à quatre voix, Op. 39: I. Véhémente
2. Diethelm, Haug, Gmünder, Perler, Romer, Rushton - Chansons à quatre voix, Op. 39: II. Nostalgique
3. Diethelm, Haug, Gmünder, Perler, Romer, Rushton - Chansons à quatre voix, Op. 39: III. Naïve
4. Diethelm, Haug, Gmünder, Perler, Romer, Rushton - Chansons à quatre voix, Op. 39: IV. Boréale
5. Diethelm, Haug, Gmünder, Perler, Romer, Rushton - Chansons à quatre voix, Op. 39: V. Tendre
6. Diethelm, Haug, Gmünder, Perler, Romer, Rushton - Chansons à quatre voix, Op. 39: VI. Martiale
7. Diethelm, Haug, Gmünder, Perler, Romer, Rushton - Quatre Lieds, Op. 45: I. Où vivre?
8. Diethelm, Haug, Gmünder, Perler, Romer, Rushton - Quatre Lieds, Op. 45: II. Evocation
9. Diethelm, Haug, Gmünder, Perler, Romer, Rushton - Quatre Lieds, Op. 45: III. Fleurs décloses
10. Diethelm, Haug, Gmünder, Perler, Romer, Rushton - Quatre Lieds, Op. 45: IV. Ils ont tué trois petites filles
11. Diethelm, Haug, Gmünder, Perler, Romer, Rushton - Kérob-Shal, Op. 67: I. Octroi
12. Diethelm, Haug, Gmünder, Perler, Romer, Rushton - Kérob-Shal, Op. 67: II. Star
13. Diethelm, Haug, Gmünder, Perler, Romer, Rushton - Kérob-Shal, Op. 67: III. Vendredi XIII
14. Diethelm, Haug, Gmünder, Perler, Romer, Rushton - Trois Mélodies, Op. 4: I. Lied
15. Diethelm, Haug, Gmünder, Perler, Romer, Rushton - Trois Mélodies, Op. 4: II. Il pleure dans mon coeur
16. Diethelm, Haug, Gmünder, Perler, Romer, Rushton - Trois Mélodies, Op. 4: III. Fils de la Vierge
17. Diethelm, Haug, Gmünder, Perler, Romer, Rushton - Deux Chansons, Op. 18: I. Neige, coeur et lys
18. Diethelm, Haug, Gmünder, Perler, Romer, Rushton - Deux Chansons, Op. 18: II. Chanson bretonne
19. Diethelm, Haug, Gmünder, Perler, Romer, Rushton - Quatre Poèmes de Ronsard, Op. 100: I. Si…
20. Diethelm, Haug, Gmünder, Perler, Romer, Rushton - Quatre Poèmes de Ronsard, Op. 100: II. Privilèges
21. Diethelm, Haug, Gmünder, Perler, Romer, Rushton - Quatre Poèmes de Ronsard, Op. 100: III. Ses deux yeux
22. Diethelm, Haug, Gmünder, Perler, Romer, Rushton - Quatre Poèmes de Ronsard, Op. 100: IV. Le soir qu’Amour
23. Diethelm, Haug, Gmünder, Perler, Romer, Rushton - Trois Chants, Op. 98: I. Elle était venue
24. Diethelm, Haug, Gmünder, Perler, Romer, Rushton - Trois Chants, Op. 98: II. La citerne des mille colonnes - Yéré Batan
25. Diethelm, Haug, Gmünder, Perler, Romer, Rushton - Trois Chants, Op. 98: III. La tortue et le lièvre - Fable

foobar2000 1.3.16 / Dynamic Range Meter 1.1.1
log date: 2020-08-01 16:55:42

––––––––––––––––––––––––––––––––––––––––
Analyzed: Annina Haug / Florent Schmitt: Mélodies (1-2)
Nino Aurelio Gmünder / Florent Schmitt: Mélodies (3-10)
René Perler / Florent Schmitt: Mélodies (11-13)
Sybille Diethelm / Florent Schmitt: Mélodies (14-25)
––––––––––––––––––––––––––––––––––––––––

DR Peak RMS Duration Track
––––––––––––––––––––––––––––––––––––––––
DR12 -5.45 dB -27.19 dB 3:32 17-Deux Chansons, Op. 18: I. Neige, coeur et lys
DR14 -7.96 dB -26.51 dB 2:28 18-Deux Chansons, Op. 18: II. Chanson bretonne
DR13 -7.60 dB -28.41 dB 1:32 07-Quatre Lieds, Op. 45: I. Où vivre?
DR11 -8.19 dB -28.89 dB 1:38 08-Quatre Lieds, Op. 45: II. Evocation
DR14 -8.52 dB -30.43 dB 2:23 09-Quatre Lieds, Op. 45: III. Fleurs décloses
DR13 -8.75 dB -29.76 dB 2:51 10-Quatre Lieds, Op. 45: IV. Ils ont tué trois petites filles
DR13 -9.02 dB -28.43 dB 2:36 19-Quatre Poèmes de Ronsard, Op. 100: I. Si…
DR13 -5.37 dB -24.69 dB 1:43 20-Quatre Poèmes de Ronsard, Op. 100: II. Privilèges
DR14 -8.50 dB -29.93 dB 2:50 21-Quatre Poèmes de Ronsard, Op. 100: III. Ses deux yeux
DR14 -6.75 dB -25.02 dB 3:03 22-Quatre Poèmes de Ronsard, Op. 100: IV. Le soir qu’Amour
DR13 -15.56 dB -34.01 dB 3:12 14-Trois Mélodies, Op. 4: I. Lied
DR13 -14.30 dB -32.71 dB 2:57 15-Trois Mélodies, Op. 4: II. Il pleure dans mon coeur
DR14 -12.08 dB -31.13 dB 2:45 16-Trois Mélodies, Op. 4: III. Fils de la Vierge
DR13 -3.60 dB -21.51 dB 1:23 01-Chansons à quatre voix, Op. 39: I. Véhémente
DR12 -6.48 dB -26.07 dB 2:02 02-Chansons à quatre voix, Op. 39: II. Nostalgique
DR13 -5.67 dB -25.17 dB 2:51 03-Chansons à quatre voix, Op. 39: III. Naïve
DR12 -5.35 dB -22.50 dB 1:26 04-Chansons à quatre voix, Op. 39: IV. Boréale
DR14 -5.99 dB -25.51 dB 4:13 05-Chansons à quatre voix, Op. 39: V. Tendre
DR13 -1.47 dB -22.51 dB 1:48 06-Chansons à quatre voix, Op. 39: VI. Martiale
DR16 -2.15 dB -25.74 dB 3:55 11-Kérob-Shal, Op. 67: I. Octroi
DR14 -6.07 dB -26.23 dB 2:17 12-Kérob-Shal, Op. 67: II. Star
DR14 -0.92 dB -24.35 dB 3:38 13-Kérob-Shal, Op. 67: III. Vendredi XIII
DR13 -4.11 dB -24.34 dB 5:13 23-Trois Chants, Op. 98: I. Elle était venue
DR14 -6.09 dB -26.73 dB 6:07 24-Trois Chants, Op. 98: II. La citerne des mille colonnes - Yéré Batan
DR13 -5.40 dB -23.83 dB 4:07 25-Trois Chants, Op. 98: III. La tortue et le lièvre - Fable
––––––––––––––––––––––––––––––––––––––––

Number of tracks: 25
Official DR value: DR13

Samplerate: 96000 Hz
Channels: 2
Bits per sample: 24
Bitrate: 1978 kbps
Codec: FLAC
================================================================================



Thanks to the Original customer.