Tags
Language
Tags

Dinah Washington - I Wanna Be Loved! (1961/2021) [Official Digital Download 24/96]

Posted By: pyatak
Dinah Washington - I Wanna Be Loved! (1961/2021) [Official Digital Download 24/96]

Dinah Washington - I Wanna Be Loved! (1961/2021) [Official Digital Download 24/96]
FLAC (tracks) 24-bit/96 kHz | Front Cover | Time - 32:19 minutes | 629 MB
Jazz | Label: Verve, Official Digital Download

One of the great "heartbreak" albums. Dinah lends her highly personal take to such numbers as Sometimes I'm Happy; I Can't Face the Music; Don't Explain; You're Crying, and Everybody's Somebody's Fool with masterful accompaniment from arranger Quincy Jones and a top-notch jazz orchestra on this 1962 Mercury release. Feelin' bad never sounded so good.

TRACKLIST

1. Dinah Washington - I Wanna Be Loved (Remastered)
2. Dinah Washington - Don't Explain (Remastered)
3. Dinah Washington - Everybody's Somebody's Fool (Remastered)
4. Dinah Washington - Invitation (Remastered)
5. Dinah Washington - You're Crying (Remastered)
6. Dinah Washington - Let's Fall in Love (Remastered)
7. Dinah Washington - When Your Lover Has Gone (Remastered)
8. Dinah Washington - A Stranger in Town (Remastered)
9. Dinah Washington - God Bless The Child (Remastered)
10. Dinah Washington - Blue Gardenia (Remastered)
11. Dinah Washington - I Can't Face the Music (Remastered)
12. Dinah Washington - Sometimes I'm Happy (Remastered)

foobar2000 1.6.2 / Dynamic Range Meter 1.1.1
log date: 2021-07-31 18:37:40

––––––––––––––––––––––––––––––––––––––––
Analyzed: Dinah Washington / I Wanna Be Loved!
––––––––––––––––––––––––––––––––––––––––

DR Peak RMS Duration Track
––––––––––––––––––––––––––––––––––––––––
DR10 -2.52 dB -15.36 dB 2:44 01-I Wanna Be Loved (Remastered)
DR10 -3.18 dB -16.33 dB 2:31 02-Don't Explain (Remastered)
DR11 -2.21 dB -16.77 dB 2:30 03-Everybody's Somebody's Fool (Remastered)
DR11 -2.22 dB -15.64 dB 3:03 04-Invitation (Remastered)
DR10 -2.62 dB -14.47 dB 3:28 05-You're Crying (Remastered)
DR9 -2.60 dB -13.62 dB 2:07 06-Let's Fall in Love (Remastered)
DR10 -2.29 dB -15.05 dB 2:10 07-When Your Lover Has Gone (Remastered)
DR9 -2.68 dB -14.31 dB 2:16 08-A Stranger in Town (Remastered)
DR9 -2.30 dB -14.80 dB 2:45 09-God Bless The Child (Remastered)
DR11 -2.41 dB -16.71 dB 3:20 10-Blue Gardenia (Remastered)
DR10 -2.93 dB -15.91 dB 3:23 11-I Can't Face the Music (Remastered)
DR9 -2.43 dB -13.03 dB 2:06 12-Sometimes I'm Happy (Remastered)
––––––––––––––––––––––––––––––––––––––––

Number of tracks: 12
Official DR value: DR10

Samplerate: 96000 Hz
Channels: 2
Bits per sample: 24
Bitrate: 2807 kbps
Codec: FLAC
================================================================================



Thanks to the Original customer.