Tags
Language
Tags

Don Gibson - Bitter Sweetness of a Blues Genius (The 2020 Remasters) (2020) [Official Digital Download]

Posted By:
Don Gibson - Bitter Sweetness of a Blues Genius (The 2020 Remasters) (2020) [Official Digital Download]

Don Gibson - Bitter Sweetness of a Blues Genius (The 2020 Remasters) (2020) [Official Digital Download]
FLAC (tracks) 24-bit/48 kHz | Front Cover | Time - 01:12:27 minutes | 772 MB
Vocal Jazz | Label: Jube Legends, Official Digital Download

If you happen to find yourself in one of those "blue-blue-day-heartbreak-who-cares-what-about-lonesome-me" moods and you want some music to help you wallow in your depression, Don Gibson's your man. Feeling sorry for himself was Don's specialty and as a singer and songwriter he made quite a name exploring the depths of self-pity, piling up a big stack of hits in the process. Also, in a slightly less drastic mindset, he composed a couple of sad songs that found long-lasting impact in the pop culture mainstream, one through a version by a blind, multitalented rhythm and blues singer, the other by way of an unusually gifted vocalist who died before her time.

Unhappy with the demands of growing up in a family of hard-working Shelby, North Carolina sharecroppers, Don made a decision at a very young age to leave the fields at the first opportunity, dropping out of school after the second grade. Very shy as a young boy, he developed a stutter and stayed away from crowds of people. A smart child regardless of his limited schooling, he spent what spare time he had reading and listening to music on the radio. In his teens, Gibson frequented pool halls in Shelby, playing well enough to make money as a pool shark while occasionally practicing guitar with some of his friends. Ned Costner, a fiddle player from the area, thought Don (who idolized the innovative techniques of jazz great Django Reinhardt) had potential and, joined by Curly Sisk on guitar, they began playing together for friends and relatives at each other's homes. Local exposure led to performances by the trio on Selby radio station WOHS, calling themselves The Sons of the Soil with Don playing bass and singing (and gradually overcoming his shyness). Later, with a varying number of local musicians including fiddle player Jim Barber, they performer on-air as The Hi-Lighters.

TRACKLIST

1. Don Gibson - I can't stop loving you
2. Ray Charles - Nobody Cares
3. Hank Williams - You win again
4. Dallas Bartley - Early in the morning
5. Clarence Williams - Half as much
6. Ray Charles - Mr. Charles Blues
7. Cindy Walker - You don't know me
8. Ray Charles - I Believe
9. Zeke Clements - Just a Little Lovin'
10. Nappy Brown - The Right Time
11. Hank Williams - Hey! Good Lookin'
12. Ray Charles - Ray's Blues
13. Floyd Tillman - It makes no Difference now
14. Eddie Jones - Feelin' sad
15. Ray Charles - Careless Love
16. Sam Sweet - The Midnight Hour
17. Hank Snow - I'm movin' on
18. Floyd Tillman - I love you so much, It hurts
19. Ray Charles - Hard Times
20. Ted Daffan - Worried Mind
21. Ray Charles - Some Day Baby
22. Frankie Brown - Born to lose
23. Ray Charles - I wonder who
24. Boudleaux Bryant - Bye-bye Love

foobar2000 1.3.16 / Dynamic Range Meter 1.1.1
log date: 2020-09-07 17:29:05

––––––––––––––––––––––––––––––––––––––––
Analyzed: Boudleaux Bryant / Bitter Sweetness of a Blues Genius (The 2020 Remasters) (1)
Cindy Walker / Bitter Sweetness of a Blues Genius (The 2020 Remasters) (2)
Clarence Williams / Bitter Sweetness of a Blues Genius (The 2020 Remasters) (3)
Dallas Bartley / Bitter Sweetness of a Blues Genius (The 2020 Remasters) (4)
Don Gibson / Bitter Sweetness of a Blues Genius (The 2020 Remasters) (5)
Eddie Jones / Bitter Sweetness of a Blues Genius (The 2020 Remasters) (6)
Floyd Tillman / Bitter Sweetness of a Blues Genius (The 2020 Remasters) (7-8)
Frankie Brown / Bitter Sweetness of a Blues Genius (The 2020 Remasters) (9)
Hank Snow / Bitter Sweetness of a Blues Genius (The 2020 Remasters) (10)
Hank Williams / Bitter Sweetness of a Blues Genius (The 2020 Remasters) (11-12)
Nappy Brown / Bitter Sweetness of a Blues Genius (The 2020 Remasters) (13)
Ray Charles / Bitter Sweetness of a Blues Genius (The 2020 Remasters) (14-21)
Sam Sweet / Bitter Sweetness of a Blues Genius (The 2020 Remasters) (22)
Ted Daffan / Bitter Sweetness of a Blues Genius (The 2020 Remasters) (23)
Zeke Clements / Bitter Sweetness of a Blues Genius (The 2020 Remasters) (24)
––––––––––––––––––––––––––––––––––––––––

DR Peak RMS Duration Track
––––––––––––––––––––––––––––––––––––––––
DR11 -1.42 dB -13.98 dB 2:05 24-Bye-bye Love
DR11 -1.42 dB -14.56 dB 3:12 07-You don't know me
DR12 -1.42 dB -15.68 dB 3:16 05-Half as much
DR10 -1.42 dB -12.46 dB 2:44 04-Early in the morning
DR11 -1.42 dB -15.63 dB 4:11 01-I can't stop loving you
DR9 -1.42 dB -13.62 dB 2:48 14-Feelin' sad
DR14 -1.42 dB -18.70 dB 3:24 13-It makes no Difference now
DR12 -1.42 dB -16.26 dB 3:32 18-I love you so much, It hurts
DR12 -1.42 dB -16.46 dB 3:13 22-Born to lose
DR10 -1.42 dB -12.21 dB 2:12 17-I'm movin' on
DR11 -1.42 dB -14.47 dB 3:28 03-You win again
DR12 -1.42 dB -16.12 dB 2:09 11-Hey! Good Lookin'
DR9 -1.42 dB -11.77 dB 3:23 10-The Right Time
DR10 -1.42 dB -15.97 dB 2:38 02-Nobody Cares
DR12 -1.42 dB -16.79 dB 2:46 06-Mr. Charles Blues
DR10 -1.42 dB -14.47 dB 3:00 08-I Believe
DR13 -1.42 dB -18.23 dB 2:52 12-Ray's Blues
DR11 -1.42 dB -15.64 dB 3:51 15-Careless Love
DR9 -1.42 dB -15.31 dB 2:54 19-Hard Times
DR13 -1.42 dB -17.13 dB 2:58 21-Some Day Baby
DR9 -1.42 dB -12.73 dB 2:47 23-I wonder who
DR10 -1.42 dB -15.05 dB 2:59 16-The Midnight Hour
DR12 -1.42 dB -15.98 dB 2:53 20-Worried Mind
DR12 -1.42 dB -14.99 dB 3:24 09-Just a Little Lovin'
––––––––––––––––––––––––––––––––––––––––

Number of tracks: 24
Official DR value: DR11

Samplerate: 48000 Hz
Channels: 2
Bits per sample: 24
Bitrate: 1521 kbps
Codec: FLAC
================================================================================



Thanks to the Original customer.