Doyle Bramhall II - Shades (2018) [Official Digital Download]

Posted By: pyatak
Doyle Bramhall II - Shades (2018) [Official Digital Download]

Doyle Bramhall II - Shades (2018) [Official Digital Download]
FLAC (tracks) 24-bit/44.1 kHz | Front Cover | Time - 55:52 minutes | 626 MB
Blues | Label: Provogue, Official Digital Download

On Oct.5, 2018 Provogue Records will release Shades, singer-songwriter and guitarist Doyle Bramhall II’s debut for the label. Shades is a spellbinding blend of grungy blues, raucous garage rock, transcendent psychedelia, and soothing, soul-stirring ballads that sees Bramhall reaching new heights as a multi-instrumentalist (he plays guitars, bass, drums and keyboards), producer and vocalist while responding to his heart’s most urgent commands as an arranger and lyricist. What is it about Doyle Bramhall II, and why does everybody want to work with him? Shades features a host of friends and luminaries who have all, in one way or another, played significant roles in Bramhall’s musical story: Eric Clapton, Norah Jones, the Tedeshi Trucks band, and Austin buds the Greyhounds. Since 2000, the uniquely gifted guitarist, singer, songwriter and producer has been practically joined to Eric Clapton’s hip as both an onstage and studio collaborator. Clapton makes a notable appearance on the album, providing blistering back-and-forth guitar work with Bramhall on the quaking R&B-tinged “Everything You Need”. Bramhall and pianist-singer Norah Jones have been making music together for years, and the two form a heavenly alliance on the elegant ballad “Searching for Love.” Shades concludes with a reverent reading of Bob Dylan’s classic “Going, Going, Gone,” a gem from the singer's 1974 album, Planet Waves. Bramhall had recently performed the song with the Tedeschi Trucks Band at a Gregg Allman tribute concert last year, and he felt that a reunion with the group would make a powerful coda on his record.

TRACKLIST

1 Love And Pain
2 Hammer Ring
3 Everything You Need (feat. Eric Clapton)
4 London To Tokyo
5 Searching For Love (with Norah Jones)
6 Live Forever (with Greyhounds)
7 Break Apart To Mend
8 She'll Come Around
9 The Night
10 Parvanah
11 Consciousness
12 Going Going Gone (feat. Tedeschi Trucks Band)

foobar2000 1.3.16 / Dynamic Range Meter 1.1.1
log date: 2018-10-04 18:35:12

––––––––––––––––––––––––––––––––––––––––
Analyzed: Doyle Bramhall II / Shades
––––––––––––––––––––––––––––––––––––––––

DR Peak RMS Duration Track
––––––––––––––––––––––––––––––––––––––––
DR8 0.00 dB -9.04 dB 4:11 01-Love And Pain
DR7 0.00 dB -8.84 dB 3:47 02-Hammer Ring
DR8 0.00 dB -9.63 dB 5:03 03-Everything You Need (feat. Eric Clapton)
DR8 0.00 dB -9.35 dB 4:36 04-London To Tokyo
DR8 0.00 dB -10.72 dB 6:24 05-Searching For Love (with Norah Jones)
DR7 0.00 dB -9.02 dB 3:55 06-Live Forever (with Greyhounds)
DR8 0.00 dB -10.44 dB 5:27 07-Break Apart To Mend
DR8 0.00 dB -10.04 dB 4:43 08-She'll Come Around
DR8 0.00 dB -9.41 dB 4:39 09-The Night
DR7 0.00 dB -9.35 dB 3:56 10-Parvanah
DR7 0.00 dB -8.92 dB 4:41 11-Consciousness
DR6 0.00 dB -9.27 dB 4:38 12-Going Going Gone (feat. Tedeschi Trucks Band)
––––––––––––––––––––––––––––––––––––––––

Number of tracks: 12
Official DR value: DR8

Samplerate: 44100 Hz
Channels: 2
Bits per sample: 24
Bitrate: 1565 kbps
Codec: FLAC
================================================================================



Thanks to the Original customer.