Tags
Language
Tags

Duane Allman - An Anthology (1972/2016)

Posted By: v3122
Duane Allman - An Anthology (1972/2016)

Duane Allman - An Anthology (1972/2016)
FLAC (Tracks) 24-bit/96 kHz | Official Digital Download | Time: 01:31:21
Blues Rock, Southern Rock | Island Def Jam | ~ 2.09 Gb

Howard Duane Allman (November 20, 1946 – October 29, 1971) was an American rock guitarist, session musician, and the founder and original leader of the Allman Brothers Band.

Born in Nashville, Tennessee, Allman began playing the guitar at age 14. The Allman Brothers Band were formed in Jacksonville, Florida in 1969, and achieved its greatest success in the early 1970s. Allman is best remembered for his brief but influential tenure in the band and in particular for his expressive slide guitar playing and inventive improvisational skills. A sought-after session musician both before and during his tenure with the band, Duane Allman performed with such established stars as King Curtis, Aretha Franklin, Herbie Mann, Wilson Pickett, and Boz Scaggs. He also contributed greatly to the 1970 album Layla and Other Assorted Love Songs, by Derek and the Dominos. He died following a motorcycle crash in 1971, at the age of 24.

In 2003, he was ranked number 2 in Rolling Stone magazine's list of the 100 greatest guitarists of all time, second only to Jimi Hendrix.[6] In 2011, he was ranked number 9. His guitar tone (achieved with a Gibson Les Paul and two 50-watt bass Marshall amplifiers) was named one of the greatest of all time by Guitar Player.[7] Duane Allman's skills as a guitarist were complemented by personal qualities such as his intensity, drive and ability to draw the best out of others in making music.[8] He is still referred to by his nickname "Skydog"…

~ wiki
Duane Allman - An Anthology (1972/2016):

Tracklist:

1 B.B. King Medley: Sweet Little Angel/It’s My Own Fault/How Blue Can You Get 07:12
2 Hey Jude 04:04
3 The Road Of Love 00:02:57
4 Goin’ Down Slow 00:08:49
5 The Weight 03:00
6 Games People Play 02:48
7 Shake For Me 02:42
8 Loan Me A Dime 13:03
9 Rollin’ Stone 05:03
10 Livin On The Open Road 03:05
11 Down Along The Cove 03:05
12 Please Be With Me 03:51
13 Mean Old World 03:53
14 Layla 07:08
15 Statesboro Blues (Live At The Fillmore East/1971) 04:19
16 Don’t Keep Me Wonderin’ 03:30
17 Stand Back 03:27
18 Dreams 07:18
19 Little Martha 02:09

foobar2000 1.3.3 (cdpos.biz) / Dynamic Range Meter 1.1.1
log date: 2017-03-09 05:43:24

––––––––––––––––––––––––––––––––––––––––
Analyzed: Aretha Franklin & Duane Allman / An Anthology (1)
Boz Scaggs & Duane Allman / An Anthology (2)
Clarence Carter & Duane Allman / An Anthology (3)
Cowboy / An Anthology (4)
Delaney & Bonnie & Friends & Duane Allman / An Anthology (5)
Derek & The Dominos & Duane Allman / An Anthology (6)
Duane Allman / An Anthology (7)
Eric Clapton & Duane Allman / An Anthology (8)
Hour Glass & Duane Allman / An Anthology (9)
John Hammond & Duane Allman / An Anthology (10)
Johnny Jenkins & Duane Allman / An Anthology (11-12)
King Curtis & Duane Allman / An Anthology (13)
The Allman Brothers Band / An Anthology (14-18)
Wilson Pickett & Duane Allman / An Anthology (19)
––––––––––––––––––––––––––––––––––––––––

DR Peak RMS Duration Track
––––––––––––––––––––––––––––––––––––––––
DR11 0.00 dB -12.51 dB 3:00 5-The Weight (feat. Duane Allman)
DR11 0.00 dB -13.56 dB 13:03 8-Loan Me A Dime (feat. Duane Allman)
DR11 0.00 dB -13.57 dB 2:57 3-The Road Of Love (feat. Duane Allman)
DR10 -0.01 dB -12.38 dB 3:51 12-Please Be With Me
DR10 0.00 dB -11.39 dB 3:05 10-Livin On The Open Road (feat. Duane Allman)
DR9 0.00 dB -10.79 dB 7:08 14-Layla (feat. Duane Allman)
DR11 0.00 dB -14.64 dB 8:49 4-Goin' Down Slow
DR12 0.00 dB -13.46 dB 3:53 13-Mean Old World
DR11 0.00 dB -13.27 dB 7:12 1-B.B. King Medley: Sweet Little Angel - It's My Own Fault - How Blue Can You Get (feat. Duane Allman)
DR10 0.00 dB -10.82 dB 2:42 7-Shake For Me (feat. Duane Allman)
DR13 -0.16 dB -14.37 dB 5:03 9-Rollin' Stone (feat. Duane Allman)
DR10 0.00 dB -11.39 dB 3:05 11-Down Along The Cove (feat. Duane Allman)
DR9 0.00 dB -12.26 dB 2:48 6-Games People Play
DR9 0.00 dB -10.64 dB 4:19 15-Statesboro Blues (Live At The Fillmore East, 1971)
DR10 -0.02 dB -12.09 dB 3:30 16-Don't Keep Me Wonderin'
DR10 0.00 dB -11.40 dB 3:27 17-Stand Back
DR9 0.00 dB -10.81 dB 7:18 18-Dreams
DR11 -0.40 dB -14.13 dB 2:09 19-Little Martha
DR10 -0.03 dB -13.77 dB 4:04 2-Hey Jude (feat. Duane Allman)
––––––––––––––––––––––––––––––––––––––––

Number of tracks: 19
Official DR value: DR10

Samplerate: 96000 Hz
Channels: 2
Bits per sample: 24
Bitrate: 3238 kbps
Codec: FLAC

All thanks go to the original releaser

Duane Allman in my Blog

Download Duane Allman - An Anthology (1972/2016):