Duo Jatekok - Saint-Saëns- Le carnaval des animaux - Poulenc- Double Concerto (2021) [Official Digital Download 24/96]

Posted By: pyatak
Duo Jatekok - Saint-Saëns- Le carnaval des animaux - Poulenc- Double Concerto (2021) [Official Digital Download 24/96]

Duo Jatekok - Saint-Saëns- Le carnaval des animaux - Poulenc- Double Concerto (2021) [Official Digital Download 24/96]
FLAC (tracks) 24-bit/96 kHz | Front Cover | Time - 65:21 minutes | 1,09 GB
Classical | Label: Alpha, Official Digital Download

Alex Vizorek revisits Saint-Saëns’s Carnival of the Animals. The French composer never imagined that his bestiary would become one of the most famous works in musical history, a staple repertory piece on a par with Prokofiev’s Peter and the Wolf. The Belgian comedian and actor has rewritten the text of this ‘grand zoological fantasy’, which he narrates here alongside Duo Jatekok and the Orchestre National de Lille under the direction of Lucie Leguay. The work’s ‘crazy and poetic drollery’ takes in the ‘Royal March of the Lion’, the ‘Hens and Cocks’, the mysterious ‘Hemiones’, the motley procession of ‘Turtles’, ‘Elephant’ and ‘Kangaroos’, the famous ‘Aquarium’ which gave the Cannes Festival its signature tune, and of course the celebrated ‘Swan’. ‘When human beings keep their distance, animals are happy’, concludes Alex Vizorek. To celebrate the centenary of Saint-Saëns’s death in 1921, Duo Jatekok also presents another of his biggest hits, the Danse macabre, in its version for four hands. Naïri Badal and Adélaïde Panaget, the orchestra and Lucie Leguay bring this colourful parade to a close with Poulenc’s flamboyant Concerto for Two Pianos, premiered at the Tenth Venice Biennale in 1932.

TRACKLIST

1. Alex Vizorek - Introduction (Récit)
2. Duo Jatekok - Introduction
3. Alex Vizorek - Marche royale du lion (Récit)
4. Duo Jatekok - Marche royale du lion
5. Alex Vizorek - Poules et coqs (Récit)
6. Duo Jatekok - Poules et coqs
7. Alex Vizorek - Hémiones (animaux véloces) (Récit)
8. Duo Jatekok - Hémiones (animaux véloces)
9. Alex Vizorek - Tortues (Récit)
10. Duo Jatekok - Tortues
11. Alex Vizorek - L'éléphant (Récit)
12. Duo Jatekok - L'éléphant
13. Alex Vizorek - Kangourous (Récit)
14. Duo Jatekok - Kangourous
15. Alex Vizorek - Aquarium (Récit)
16. Duo Jatekok - Aquarium
17. Alex Vizorek - Personnages à longues oreilles (Récit)
18. Duo Jatekok - Personnages à longues oreilles
19. Alex Vizorek - Le coucou au fond des bois (Récit)
20. Duo Jatekok - Le coucou au fond des bois
21. Alex Vizorek - Volière (Récit)
22. Duo Jatekok - Volière
23. Alex Vizorek - Pianistes (Récit)
24. Duo Jatekok - Pianistes
25. Alex Vizorek - Fossiles (Récit)
26. Duo Jatekok - Fossiles
27. Alex Vizorek - Le Cygne (Récit)
28. Duo Jatekok - Le Cygne
29. Alex Vizorek - Finale (Récit)
30. Duo Jatekok - Finale
31. Duo Jatekok - I. Allegro ma non troppo
32. Duo Jatekok - II. Larghetto
33. Duo Jatekok - III. Allegro molto
34. Alex Vizorek - Danse macabre, Op. 40: Introduction sur un poème de Henri Cazalis
35. Duo Jatekok - Danse macabre, Op. 40

foobar2000 1.6.2 / Dynamic Range Meter 1.1.1
log date: 2021-06-11 11:01:52

––––––––––––––––––––––––––––––––––––––––
Analyzed: Alex Vizorek / Saint-Saëns: Le carnaval des animaux - Poulenc: Double Concerto (1-16)
Duo Jatekok / Saint-Saëns: Le carnaval des animaux - Poulenc: Double Concerto (17-35)
––––––––––––––––––––––––––––––––––––––––

DR Peak RMS Duration Track
––––––––––––––––––––––––––––––––––––––––
DR14 -13.70 dB -30.04 dB 1:58 01-Introduction (Récit)
DR13 -13.41 dB -29.02 dB 0:41 03-Marche royale du lion (Récit)
DR12 -14.97 dB -29.35 dB 0:47 05-Poules et coqs (Récit)
DR11 -14.04 dB -28.76 dB 0:41 07-Hémiones (animaux véloces) (Récit)
DR10 -13.56 dB -28.57 dB 0:55 09-Tortues (Récit)
DR12 -12.20 dB -28.01 dB 1:02 11-L'éléphant (Récit)
DR14 -11.78 dB -29.18 dB 0:51 13-Kangourous (Récit)
DR13 -13.56 dB -30.72 dB 1:11 15-Aquarium (Récit)
DR13 -13.95 dB -30.41 dB 0:40 17-Personnages à longues oreilles (Récit)
DR12 -12.54 dB -28.51 dB 1:02 19-Le coucou au fond des bois (Récit)
DR12 -12.05 dB -28.57 dB 0:45 21-Volière (Récit)
DR13 -13.96 dB -31.33 dB 1:56 23-Pianistes (Récit)
DR11 -13.14 dB -28.44 dB 0:42 25-Fossiles (Récit)
DR12 -13.21 dB -29.79 dB 0:48 27-Le Cygne (Récit)
DR11 -13.88 dB -28.32 dB 0:34 29-Finale (Récit)
DR13 -11.85 dB -29.32 dB 0:56 34-Danse macabre, Op. 40: Introduction sur un poème de Henri Cazalis
DR11 -0.66 dB -16.50 dB 0:28 02-Introduction
DR12 -1.23 dB -16.57 dB 1:29 04-Marche royale du lion
DR13 -0.58 dB -21.49 dB 0:45 06-Poules et coqs
DR12 -2.02 dB -18.92 dB 0:39 08-Hémiones (animaux véloces)
DR11 -8.31 dB -25.80 dB 2:00 10-Tortues
DR11 -5.99 dB -21.14 dB 1:33 12-L'éléphant
DR16 -3.28 dB -28.43 dB 1:01 14-Kangourous
DR12 -9.36 dB -27.10 dB 2:36 16-Aquarium
DR12 -7.98 dB -26.07 dB 0:52 18-Personnages à longues oreilles
DR14 -12.91 dB -33.05 dB 2:27 20-Le coucou au fond des bois
DR13 -7.56 dB -24.29 dB 1:15 22-Volière
DR13 -0.99 dB -16.75 dB 1:17 24-Pianistes
DR11 -0.58 dB -16.30 dB 1:18 26-Fossiles
DR14 -1.00 dB -21.82 dB 2:56 28-Le Cygne
DR13 -0.83 dB -17.66 dB 1:57 30-Finale
DR14 -0.55 dB -19.98 dB 8:23 31-I. Allegro ma non troppo
DR15 -0.60 dB -22.31 dB 5:29 32-II. Larghetto
DR13 -0.56 dB -17.96 dB 6:01 33-III. Allegro molto
DR14 -0.58 dB -21.60 dB 7:27 35-Danse macabre, Op. 40
––––––––––––––––––––––––––––––––––––––––

Number of tracks: 35
Official DR value: DR13

Samplerate: 96000 Hz
Channels: 2
Bits per sample: 24
Bitrate: 2325 kbps
Codec: FLAC
================================================================================



Thanks to the Original customer.