Tags
Language
Tags

Elisa Baciocchi Ensemble - Geminiani - La forêt enchantée (Live) (2022) [Official Digital Download 24/96]

Posted By: pyatak
Elisa Baciocchi Ensemble - Geminiani - La forêt enchantée (Live) (2022) [Official Digital Download 24/96]

Elisa Baciocchi Ensemble - Geminiani - La forêt enchantée (Live) (2022) [Official Digital Download 24/96]
FLAC (tracks) 24-bit/96 kHz | Front Cover | Time - 72:07 minutes | 963 MB
Classical | Label: Tactus, Official Digital Download

The musical production of Francesco Saverio Geminiani is totally focused on instrumental music, and includes two collections of violin sonatas, one of cello sonatas, three of concerti grossi, two of Pièces de Clavecin, and a series of transcriptions and revisions of works by other important Italian composers such as Arcangelo Corelli and Francesco Mancini. Geminiani was very active as a treatise writer: he published no less than six works, among which the one that stands out is The art of playing on the violin, published in 1751 and still regarded as the most important violin treatise of that period, together with that of Leopold Mozart from 1756. The treatise became quite famous at once, and was much used by the composer's contemporaries; several versions of it were published up to 1790, with English and French editions, reaching the New World. The composer's only digression from his customary work consisted of La Forêt enchantée, a theatrical pantomime meant to be performed by mimes and dancers on expressly-composed music; it had been inspired by Canti xiii and xviii of Gerusalemme liberata, by Torquato Tasso (1544-1595). The version drawn up by Claudio Valenti - who devised the dramatic part together with the actor Piero Nannini - seeks out and re-creates the prosodic relationship between the text and the music that constitutes the core of the composer's inspiration in his reading of Tasso's text. For this reason, the work is presented not only in it's version for string instruments alone, with the addition of a single flute, but has also been stripped of it's orchestral repetitions (all of them), so as to outline an instrumental structure that is transparent, but able to catch and amplify the expressive peculiarities of the score in relation to the text, achieving a novel sort of representative madrigal.

TRACKLIST

1. Elisa Baciocchi Ensemble - Ma cadde a pena in cenere (Live)
2. Elisa Baciocchi Ensemble - Or qui se 'n venne il mago (Live)
3. Elisa Baciocchi Ensemble - Udite, udite, o voi che da le stelle (Live)
4. Elisa Baciocchi Ensemble - A quel parlar le faci (Live)
5. Elisa Baciocchi Ensemble - Fuggono al fine (Live)
7. Elisa Baciocchi Ensemble - Era là giunto (Live)
8. Elisa Baciocchi Ensemble - E poi se 'n va tutto sospeso e lento (Live)
9. Elisa Baciocchi Ensemble - Là s'apre il giglio (Live)
10. Elisa Baciocchi Ensemble - Rinaldo guata (Live)

foobar2000 1.6.2 / Dynamic Range Meter 1.1.1
log date: 2022-03-04 20:37:24

––––––––––––––––––––––––––––––––––––––––
Analyzed: Elisa Baciocchi Ensemble / Geminiani: La forêt enchantée (Live)
––––––––––––––––––––––––––––––––––––––––

DR Peak RMS Duration Track
––––––––––––––––––––––––––––––––––––––––
DR13 -6.82 dB -25.69 dB 6:54 01-Ma cadde a pena in cenere (Live)
DR13 -5.86 dB -24.49 dB 4:59 02-Or qui se 'n venne il mago (Live)
DR16 0.00 dB -22.19 dB 8:03 03-Udite, udite, o voi che da le stelle (Live)
DR15 -4.46 dB -25.53 dB 9:39 04-A quel parlar le faci (Live)
DR15 -4.96 dB -27.12 dB 7:30 05-Fuggono al fine (Live)
DR14 -3.01 dB -22.04 dB 5:22 07-Era là giunto (Live)
DR13 -4.94 dB -22.81 dB 3:57 08-E poi se 'n va tutto sospeso e lento (Live)
DR14 -1.61 dB -22.09 dB 3:50 09-Là s'apre il giglio (Live)
DR14 -4.03 dB -22.83 dB 8:49 10-Rinaldo guata (Live)
––––––––––––––––––––––––––––––––––––––––

Number of tracks: 9
Official DR value: DR14

Samplerate: 96000 Hz
Channels: 2
Bits per sample: 24
Bitrate: 2310 kbps
Codec: FLAC
================================================================================



Thanks to the Original customer.