Ella Fitzgerald - Ella Fitzgerald (1973) [Official Digital Download 24/96]

Posted By: pyatak
Ella Fitzgerald - Ella Fitzgerald (1973) [Official Digital Download 24/96]

Ella Fitzgerald - Ella Fitzgerald (1973) [Official Digital Download 24/96]
FLAC (tracks) 24-bit/96 kHz | Front Cover | Time - 23:20 minutes | 451 MB
Vocal Jazz | Label: Everest Records, Official Digital Download

Ella Jane Fitzgerald (April 25, 1917 – June 15, 1996) was an American jazz singer, sometimes referred to as the First Lady of Song, Queen of Jazz, and Lady Ella. She was noted for her purity of tone, impeccable diction, phrasing, timing, intonation, and a "horn-like" improvisational ability, particularly in her scat singing.

After a tumultuous adolescence, Fitzgerald found stability in musical success with the Chick Webb Orchestra, performing across the country but most often associated with the Savoy Ballroom in Harlem. Her rendition of the nursery rhyme "A-Tisket, A-Tasket" helped boost both her and Webb to national fame. After taking over the band when Webb died, Fitzgerald left it behind in 1942 to start her solo career.

Her manager was Moe Gale, co-founder of the Savoy, until she turned the rest of her career over to Norman Granz, who founded Verve Records to produce new records by Fitzgerald. With Verve she recorded some of her more widely noted works, particularly her interpretations of the Great American Songbook.

While Fitzgerald appeared in movies and as a guest on popular television shows in the second half of the twentieth century, her musical collaborations with Louis Armstrong, Duke Ellington, and The Ink Spots were some of her most notable acts outside of her solo career. These partnerships produced some of her best-known songs such as "Dream a Little Dream of Me", "Cheek to Cheek", "Into Each Life Some Rain Must Fall", and "It Don't Mean a Thing (If It Ain't Got That Swing)".

In 1993, after a career of nearly 60 years, she gave her last public performance. Three years later, she died at the age of 79 after years of declining health. Her accolades included fourteen Grammy Awards, the National Medal of Arts, and the Presidential Medal of Freedom.

TRACKLIST

1. Ella Fitzgerald - Misty Blue
2. Ella Fitzgerald - Walking in the Sunshine
3. Ella Fitzgerald - It's Only Love
4. Ella Fitzgerald - Evil on Your Mind
5. Ella Fitzgerald - The Chokin' Kind
6. Ella Fitzgerald - Born to Lose
7. Ella Fitzgerald - This Gun Don't Care
8. Ella Fitzgerald - Don't Let the Doorknob Hit You
9. Ella Fitzgerald - Don't Touch Me

foobar2000 1.6.2 / Dynamic Range Meter 1.1.1
log date: 2021-05-07 09:17:25

––––––––––––––––––––––––––––––––––––––––
Analyzed: Ella Fitzgerald / Ella Fitzgerald
––––––––––––––––––––––––––––––––––––––––

DR Peak RMS Duration Track
––––––––––––––––––––––––––––––––––––––––
DR10 -1.22 dB -12.75 dB 2:27 01-Misty Blue
DR11 -1.22 dB -13.09 dB 2:30 02-Walking in the Sunshine
DR10 -1.25 dB -12.78 dB 3:01 03-It's Only Love
DR11 -1.22 dB -13.23 dB 2:14 04-Evil on Your Mind
DR11 -1.21 dB -13.69 dB 1:58 05-The Chokin' Kind
DR9 -1.22 dB -12.36 dB 3:14 06-Born to Lose
DR11 -1.73 dB -14.37 dB 2:42 07-This Gun Don't Care
DR11 -1.21 dB -13.22 dB 2:24 08-Don't Let the Doorknob Hit You
DR10 -1.80 dB -13.89 dB 2:53 09-Don't Touch Me
––––––––––––––––––––––––––––––––––––––––

Number of tracks: 9
Official DR value: DR10

Samplerate: 96000 Hz
Channels: 2
Bits per sample: 24
Bitrate: 2619 kbps
Codec: FLAC
================================================================================



Thanks to the Original customer.