Elvis Presley - A Date With Elvis (Mono Remastered) (2020) [Official Digital Download 24/96]

Posted By: SERTiL
Elvis Presley - A Date With Elvis (Mono Remastered) (2020) [Official Digital Download 24/96]

Elvis Presley - A Date With Elvis (Mono Remastered) (2020)
FLAC (tracks) 24-bit/96 kHz | Time - 27:42 minutes | 288 MB
Studio Master, Official Digital Download | Artwork: Front Cover

Good products are worth their weight in gold when times are a little harsh – and this album was certainly a genially placed stopgap. In 1959, at the time when RCA launched this record on the market, the label’s shining rock star was out of the country doing his military service in good old Germany. In order to comfort all his fans during his forced absence, the record bosses produced an album with a smartly uniformed Elvis on the cover, smiling widely to let his faithful followers know that he’d be back soon. There was a special calendar too, so that his fans could count off the days until his return. This marketing ploy was extremely successful. The record became a highly desirable collector’s item and even years later illegal dollars still flowed from pirate copies.

The RCA producers kept mum about when and where the tracks were recorded. But who cares about that when listening to Elvis giving the 'blue grass' classic "Blue Moon Of Kentucky" his unmistakable, rockabilly sound? The other titles, all of them performed by a well-proven ensemble of rock-’n’-roll musicians, are filled with the honest, powerful language of the young – or from today’s viewpoint, old – Elvis. Which takes us back full circle to the date. What better way is there to celebrate the 50th birthday of rock-’n’-roll than with this early album by its 'King'?

Recorded July 1954 in mono at Memphis Recording Service, Memphis, Tennessee (USA), and other venues till 1957

Tracklist:
1. Blue Moon of Kentucky (2:05)
2. Young and Beautiful (2:06)
3. (You're so Square) Baby I Don't Care (1:53)
4. Milkcow Blues Boogie (2:39)
5. Baby, Let's Play House (2:18)
6. Good Rockin' Tonight (2:14)
7. Is It so Strange (2:31)
8. We're Gonna Move (2:32)
9. I Want to Be Free (2:16)
10. I Forgot to Remember to Forget (2:31)
11. Don't Leave Me Now (2:05)
12. Harbor Lights (2:36)

Digitally remastered

foobar2000 1.3.7 / Dynamic Range Meter 1.1.1
log date: 2020-01-10 22:11:50

––––––––––––––––––––––––––––––––––––––––
Analyzed: Elvis Presley / A Date With Elvis (Mono Remastered)
––––––––––––––––––––––––––––––––––––––––

DR Peak RMS Duration Track
––––––––––––––––––––––––––––––––––––––––
DR8 -3.43 dB -13.48 dB 2:05 01-Blue Moon of Kentucky
DR12 -0.08 dB -17.91 dB 2:06 02-Young and Beautiful
DR14 0.00 dB -16.90 dB 1:53 03-(You're so Square) Baby I Don't Care
DR11 -0.86 dB -14.56 dB 2:39 04-Milkcow Blues Boogie
DR12 0.00 dB -14.09 dB 2:18 05-Baby, Let's Play House
DR12 -0.38 dB -14.55 dB 2:14 06-Good Rockin' Tonight
DR13 -0.18 dB -16.55 dB 2:31 07-Is It so Strange
DR11 -1.51 dB -15.38 dB 2:32 08-We're Gonna Move
DR11 -1.81 dB -15.40 dB 2:16 09-I Want to Be Free
DR13 0.00 dB -16.07 dB 2:31 10-I Forgot to Remember to Forget
DR12 0.00 dB -14.39 dB 2:05 11-Don't Leave Me Now
DR12 0.00 dB -15.49 dB 2:36 12-Harbor Lights
––––––––––––––––––––––––––––––––––––––––

Number of tracks: 12
Official DR value: DR12

Samplerate: 96000 Hz
Channels: 2
Bits per sample: 24
Bitrate: 1458 kbps
Codec: FLAC
================================================================================


Thanks to the Original customer.