Ensemble Les Surprises, Louis-Noël Bestion de Camboulas - Purcell - Tyrannic Love (2021) [Official Digital Download 24/96]

Posted By: pyatak
Ensemble Les Surprises, Louis-Noël Bestion de Camboulas - Purcell - Tyrannic Love (2021) [Official Digital Download 24/96]

Ensemble Les Surprises, Louis-Noël Bestion de Camboulas - Purcell - Tyrannic Love (2021) [Official Digital Download 24/96]
FLAC (tracks) 24-bit/96 kHz | Front Cover | Time - 60:45 minutes | 1,1 GB
Classical | Label: Alpha, Official Digital Download

Until the late 1680s, Henry Purcell composed almost exclusively for the royal court. But when the monarchy decided to reduce its expenditure on music in 1690, he joined the United Company, a London theatre company, and devoted himself to composing for its productions. These took varied forms, with operas such as King Arthur (1691), The Fairy Queen (1692) and The Indian Queen (1695) but also spoken plays with music, such as The Virtuous Wife (1695). It is excerpts from these works that are presented in Tyrannic Love. Compositions by Purcells colleagues or followers John Blow, John Eccles, Jeremiah Clarke and Daniel Purcell complete the programme. This recording marks the beginning of the collaboration between Alpha and the ensemble Les Surprises, founded in 2010, which takes its name from Les Surprises de lAmour by Rameau, the groups emblematic composer. Under the artistic direction of Louis-Noël Bestion de Camboulas, who is also an organist and harpsichordist, the ensemble presents innovative interpretations and explores the rich orchestral sonorities made possible by the use of Baroque instruments.

TRACKLIST

01. Ensemble Les Surprises, Louis-Noël Bestion de Camboulas - Purcell: King Arthur, Z. 628: Hornpipe (Second Act Tune)
02. Ensemble Les Surprises, Louis-Noël Bestion de Camboulas - Eccles: The Comical History of Don Quixote, Pt. II: "I Burn, My Brain Consumes to Ashes"
03. Ensemble Les Surprises, Louis-Noël Bestion de Camboulas - Blow: Amphion Anglicus: "Poor Celadon, He Sighs in Vain" (Loving Above Himself)
04. Ensemble Les Surprises, Louis-Noël Bestion de Camboulas - Purcell: The Prophetess, or the History of Dioclesian, Z. 627: Dance of the Furies
05. Ensemble Les Surprises, Louis-Noël Bestion de Camboulas - Purcell: Rule a Wife and Have a Wife, Z. 587: "There's Not a Swain on the Plain"
06. Ensemble Les Surprises, Louis-Noël Bestion de Camboulas - Purcell: The Fairy Queen, Z. 629: Hornpipe
07. Ensemble Les Surprises, Louis-Noël Bestion de Camboulas - Purcell: The Fairy Queen, Z. 629: Dance for the Fairies
08. Ensemble Les Surprises, Louis-Noël Bestion de Camboulas - Purcell: The Fairy Queen, Z. 629: Dance for the Green Men
09. Ensemble Les Surprises, Louis-Noël Bestion de Camboulas - Purcell: The Indian Queen, Z. 630: "Ye Twice Ten-Hundred Deities"
10. Ensemble Les Surprises, Louis-Noël Bestion de Camboulas - Purcell: The Indian Queen, Z. 630: Symphony
11. Ensemble Les Surprises, Louis-Noël Bestion de Camboulas - Purcell: The Indian Queen, Z. 630: "Seek Not to Know"
12. Ensemble Les Surprises, Louis-Noël Bestion de Camboulas - Blow: Venus and Adonis: Saraband for the Graces
13. Ensemble Les Surprises, Louis-Noël Bestion de Camboulas - Purcell: A Fool's Preferment, or the Three Dukes of Dunstable, Z. 571: "There's Nothing so Fatal as Women"
14. Ensemble Les Surprises, Louis-Noël Bestion de Camboulas - Purcell: The Virtuous Wife, Z. 611: Overture
15. Ensemble Les Surprises, Louis-Noël Bestion de Camboulas - Eccles: The Comical History of Don Quixote, Pt. I: "Sleep, Poor Youth" (The Dirge)
16. Ensemble Les Surprises, Louis-Noël Bestion de Camboulas - Purcell: The Virtuous Wife, Z. 611: Slow Air
17. Ensemble Les Surprises, Louis-Noël Bestion de Camboulas - Purcell: The Virtuous Wife, Z. 611: Air
18. Ensemble Les Surprises, Louis-Noël Bestion de Camboulas - Purcell: The Yorkshire Feast Song, Z. 333: "So When the Glitt'ring Queen of Night" from "Of Old When Heroes Thought It Base"
19. Ensemble Les Surprises, Louis-Noël Bestion de Camboulas - Purcell: Anacreon's Defeat, Z. 423: "This Poet Sings the Trojan Wars"
20. Ensemble Les Surprises, Louis-Noël Bestion de Camboulas - Clarke: Song on the Assumption: Ground in D Minor
21. Ensemble Les Surprises, Louis-Noël Bestion de Camboulas - Purcell: Pausanias, the Betrayer of his Country, Z. 585: "My Dearest, My Fairest"
22. Ensemble Les Surprises, Louis-Noël Bestion de Camboulas - Purcell: Tyrannic Love, or the Royal Martyr, Z. 613: "Hark! My Damilcar"
23. Ensemble Les Surprises, Louis-Noël Bestion de Camboulas - Purcell: King Arthur, Z. 628: Chaconne

foobar2000 1.6.2 / Dynamic Range Meter 1.1.1
log date: 2021-01-13 22:44:52

––––––––––––––––––––––––––––––––––––––––
Analyzed: Ensemble Les Surprises, Louis-Noël Bestion de Camboulas / Purcell: Tyrannic Love
––––––––––––––––––––––––––––––––––––––––

DR Peak RMS Duration Track
––––––––––––––––––––––––––––––––––––––––
DR13 -0.78 dB -17.71 dB 1:15 01-Purcell: King Arthur, Z. 628: Hornpipe (Second Act Tune)
DR14 -0.11 dB -18.31 dB 3:21 02-Eccles: The Comical History of Don Quixote, Pt. II: "I Burn, My Brain Consumes to Ashes"
DR13 -4.66 dB -20.28 dB 4:40 03-Blow: Amphion Anglicus: "Poor Celadon, He Sighs in Vain" (Loving Above Himself)
DR12 -1.96 dB -18.07 dB 3:11 04-Purcell: The Prophetess, or the History of Dioclesian, Z. 627: Dance of the Furies
DR14 -0.46 dB -21.84 dB 1:25 05-Purcell: Rule a Wife and Have a Wife, Z. 587: "There's Not a Swain on the Plain"
DR12 -3.17 dB -19.48 dB 0:52 06-Purcell: The Fairy Queen, Z. 629: Hornpipe
DR11 -8.93 dB -22.37 dB 0:53 07-Purcell: The Fairy Queen, Z. 629: Dance for the Fairies
DR10 -2.27 dB -16.86 dB 1:28 08-Purcell: The Fairy Queen, Z. 629: Dance for the Green Men
DR15 -2.13 dB -20.42 dB 4:24 09-Purcell: The Indian Queen, Z. 630: "Ye Twice Ten-Hundred Deities"
DR10 -6.43 dB -19.65 dB 1:17 10-Purcell: The Indian Queen, Z. 630: Symphony
DR12 -1.99 dB -18.29 dB 2:41 11-Purcell: The Indian Queen, Z. 630: "Seek Not to Know"
DR10 -6.11 dB -23.22 dB 1:27 12-Blow: Venus and Adonis: Saraband for the Graces
DR14 -2.57 dB -21.04 dB 1:04 13-Purcell: A Fool's Preferment, or the Three Dukes of Dunstable, Z. 571: "There's Nothing so Fatal as Women"
DR11 -1.27 dB -15.74 dB 2:38 14-Purcell: The Virtuous Wife, Z. 611: Overture
DR13 -1.81 dB -18.38 dB 7:15 15-Eccles: The Comical History of Don Quixote, Pt. I: "Sleep, Poor Youth" (The Dirge)
DR10 -4.48 dB -18.73 dB 2:16 16-Purcell: The Virtuous Wife, Z. 611: Slow Air
DR12 -2.78 dB -19.56 dB 0:34 17-Purcell: The Virtuous Wife, Z. 611: Air
DR11 -2.19 dB -17.52 dB 3:48 18-Purcell: The Yorkshire Feast Song, Z. 333: "So When the Glitt'ring Queen of Night" from "Of Old When Heroes Thought It Base"
DR13 -4.27 dB -22.01 dB 3:46 19-Purcell: Anacreon's Defeat, Z. 423: "This Poet Sings the Trojan Wars"
DR10 -8.19 dB -22.62 dB 2:18 20-Clarke: Song on the Assumption: Ground in D Minor
DR12 -0.15 dB -17.14 dB 2:35 21-Purcell: Pausanias, the Betrayer of his Country, Z. 585: "My Dearest, My Fairest"
DR13 -1.23 dB -18.73 dB 4:24 22-Purcell: Tyrannic Love, or the Royal Martyr, Z. 613: "Hark! My Damilcar"
DR12 -1.26 dB -16.94 dB 3:14 23-Purcell: King Arthur, Z. 628: Chaconne
––––––––––––––––––––––––––––––––––––––––

Number of tracks: 23
Official DR value: DR12

Samplerate: 96000 Hz
Channels: 2
Bits per sample: 24
Bitrate: 2754 kbps
Codec: FLAC
================================================================================



Thanks to the Original customer.