Camille Berthollet & Julie Berthollet - Entre 2 (Version Collector) (2019) [Official Digital Download]

Posted By: SERTiL
Camille Berthollet & Julie Berthollet - Entre 2 (Version Collector) (2019) [Official Digital Download]

Camille Berthollet & Julie Berthollet - Entre 2 (Version Collector) (2019)
FLAC (tracks) 24-bit/44.1 kHz | Time - 63:11 minutes | 772 MB
Studio Master, Official Digital Download | Artwork: Digital Booklet

The talented sisters return with an album of enjoyable classics, containing songs popular in France over the last 25 years. It Includes Halliday’s Que je t'aime, Gainsbourg’s La javanaise, and Brel’s Vesoul. Star guests are Madame Monsieur, Nicolas Fraissinet, and Insa Sane.

Tracklist:
01. Ma préférence
02. Tous les mêmes
03. S'il suffisait d'aimer
04. Face à la mer
05. Qui a le droit
06. Le sud
07. Mercy
08. Lettre à France
09. Vesoul
10. Chanson d'Hélène (from Les choses de la vie)
11. J'attendrai
12. La Javanaise
13. Militaire
14. Que je t'aime
15. French Touch: Dangerous / Sunset Lover / Da Funk / Castle in the Snow (Medley)
16. Je m'voyais déjà
17. Envol
18. Une Parenthèse
19. Tous les mêmes
20. Billie Jean

Personnel:
Camille Berthollet, violin
Julie Berthollet, viola
Christophe Cravero, piano

foobar2000 1.3.7 / Dynamic Range Meter 1.1.1
log date: 2019-05-15 19:53:57

––––––––––––––––––––––––––––––––––––––––
Analyzed: Camille Berthollet, Julie Berthollet / Entre 2 (Version Collector)
––––––––––––––––––––––––––––––––––––––––

DR Peak RMS Duration Track
––––––––––––––––––––––––––––––––––––––––
DR11 -0.28 dB -15.12 dB 3:51 01-Ma préférence
DR12 -0.05 dB -14.92 dB 3:05 02-Tous les mêmes
DR10 -0.28 dB -13.66 dB 3:23 03-S'il suffisait d'aimer
DR12 -0.20 dB -14.52 dB 2:59 04-Face à la mer
DR12 -0.40 dB -16.32 dB 2:45 05-Qui a le droit
DR12 -0.25 dB -15.34 dB 3:43 06-Le sud
DR11 -1.12 dB -15.79 dB 4:45 07-Mercy
DR11 -0.27 dB -14.60 dB 3:27 08-Lettre à France
DR11 -0.10 dB -12.96 dB 3:14 09-Vesoul
DR11 -0.43 dB -15.80 dB 3:01 10-Chanson d'Hélène (from Les choses de la vie)
DR11 -0.23 dB -13.99 dB 3:08 11-J'attendrai
DR12 -0.72 dB -15.90 dB 4:12 12-La Javanaise
DR9 -0.18 dB -13.52 dB 3:17 13-Militaire
DR10 -0.33 dB -14.49 dB 1:31 14-Que je t'aime
DR11 -0.26 dB -13.82 dB 3:25 15-French Touch: Dangerous / Sunset Lover / Da Funk / Castle in the Snow (Medley)
DR12 -0.13 dB -14.23 dB 1:55 20-Billie Jean
––––––––––––––––––––––––––––––––––––––––

Number of tracks: 16
Official DR value: DR11

Samplerate: 44100 Hz
Channels: 2
Bits per sample: 24
Bitrate: 1532 kbps
Codec: FLAC
================================================================================

––––––––––––––––––––––––––––––––––––––––
Analyzed: Camille Berthollet, Julie Berthollet / Entre 2 (Version Collector)
––––––––––––––––––––––––––––––––––––––––

DR Peak RMS Duration Track
––––––––––––––––––––––––––––––––––––––––
DR13 -0.03 dB -17.42 dB 2:17 16-Je m'voyais déjà
DR13 -0.20 dB -15.92 dB 3:17 17-Envol
DR12 -0.23 dB -16.46 dB 3:59 18-Une Parenthèse
DR10 -0.20 dB -12.25 dB 2:06 19-Tous les mêmes
––––––––––––––––––––––––––––––––––––––––

Number of tracks: 4
Official DR value: DR12

Samplerate: 96000 Hz
Channels: 2
Bits per sample: 24
Bitrate: 2956 kbps
Codec: FLAC
================================================================================


Thanks to the Original customer.