Tags
Language
Tags

Erdődy Chamber Orchestra - Laks, Rózsa, Orbán & Kilar - Orchestral Works (2020) [Official Digital Download 24/96]

Posted By: pyatak
Erdődy Chamber Orchestra - Laks, Rózsa, Orbán & Kilar - Orchestral Works (2020) [Official Digital Download 24/96]

Erdődy Chamber Orchestra - Laks, Rózsa, Orbán & Kilar - Orchestral Works (2020) [Official Digital Download 24/96]
FLAC (tracks) 24-bit/96 kHz | Front Cover | Time - 01:04:11 minutes | 1,19 GB
Classical | Label: DUX, Official Digital Download

The Erdody Chamber Orchestra's third album includes works by both Polish and Hungarian composers active in the 20th century including Laks, Rozsa, Orban and Kilar.

In 1994, Zsolt Szefcsik founded the Erdody Chamber Orchestra in Budapest to promote the Hungarian musical heritage and present achievements of contemporary composers. Over 25 years, the ensemble, using Hungarian manuscript collections, has presented over one hundred forgotten pieces. Thanks to this fact, it has become an orchestra with currently the most extensive repertoire of Hungarian music. A large group of works by composers operating in the 18th and 19th centuries has become available only thanks to the concerts of the Erdody Chamber Orchestra.

TRACKLIST

1. Erdődy Chamber Orchestra & Zsolt Szefcsik - Sinfonietta: I. Ouverture. Allegro non troppo ma con brio
2. Erdődy Chamber Orchestra & Zsolt Szefcsik - Sinfonietta: II. Sérénade. Un poco adagio
3. Erdődy Chamber Orchestra & Zsolt Szefcsik - Sinfonietta: III. Rondino. Allegro giusto
4. Erdődy Chamber Orchestra & Zsolt Szefcsik - Sinfonietta: IV. Finale. Allegro vivace
5. Erdődy Chamber Orchestra & Zsolt Szefcsik - Concerto for String Orchestra, Op. 17: I. Moderato, ma risoluto ed energico
6. Erdődy Chamber Orchestra & Zsolt Szefcsik - Concerto for String Orchestra, Op. 17: II. Lento con gran espressione
7. Erdődy Chamber Orchestra & Zsolt Szefcsik - Concerto for String Orchestra, Op. 17: III. Allegro giusto
8. Erdődy Chamber Orchestra & Zsolt Szefcsik - Sopra canti diversi: I. Colindă
9. Erdődy Chamber Orchestra & Zsolt Szefcsik - Sopra canti diversi: II. Schneefall in Kronstadt
10. Erdődy Chamber Orchestra & Zsolt Szefcsik - Sopra canti diversi: III. Repülj madár, repülj
11. Erdődy Chamber Orchestra & Zsolt Szefcsik - Orawa

foobar2000 1.3.16 / Dynamic Range Meter 1.1.1
log date: 2020-07-19 12:35:04

––––––––––––––––––––––––––––––––––––––––
Analyzed: Erdődy Chamber Orchestra & Zsolt Szefcsik / Laks, Rózsa, Orbán & Kilar: Orchestral Works
––––––––––––––––––––––––––––––––––––––––

DR Peak RMS Duration Track
––––––––––––––––––––––––––––––––––––––––
DR11 -0.07 dB -16.02 dB 4:09 01-Sinfonietta: I. Ouverture. Allegro non troppo ma con brio
DR12 -3.93 dB -22.46 dB 5:10 02-Sinfonietta: II. Sérénade. Un poco adagio
DR13 -0.90 dB -17.97 dB 2:02 03-Sinfonietta: III. Rondino. Allegro giusto
DR14 -0.07 dB -18.74 dB 5:02 04-Sinfonietta: IV. Finale. Allegro vivace
DR13 -0.07 dB -16.92 dB 7:49 05-Concerto for String Orchestra, Op. 17: I. Moderato, ma risoluto ed energico
DR14 -1.27 dB -20.64 dB 7:15 06-Concerto for String Orchestra, Op. 17: II. Lento con gran espressione
DR12 -0.07 dB -16.34 dB 8:05 07-Concerto for String Orchestra, Op. 17: III. Allegro giusto
DR13 -0.07 dB -18.86 dB 5:33 08-Sopra canti diversi: I. Colindă
DR12 -0.07 dB -18.99 dB 5:22 09-Sopra canti diversi: II. Schneefall in Kronstadt
DR13 -2.22 dB -20.29 dB 5:20 10-Sopra canti diversi: III. Repülj madár, repülj
DR12 -0.71 dB -18.29 dB 8:26 11-Orawa
––––––––––––––––––––––––––––––––––––––––

Number of tracks: 11
Official DR value: DR13

Samplerate: 96000 Hz
Channels: 2
Bits per sample: 24
Bitrate: 2664 kbps
Codec: FLAC
================================================================================



Thanks to the Original customer.