Tags
Language
Tags

Eric Clapton - Live in Los Angeles 1994 (2022)

Posted By: v3122
Eric Clapton - Live in Los Angeles 1994 (2022)

Petru Iuga & Oliver Triendl - Schubert, Weinberg & Others: Double Bass Works (2021)
FLAC (Tracks) 24-bit/96 kHz | Time: 01:12:28 | 1.30 Gb
Classical | Solo Musica | Official Digital Download | Artwork: Digital Booklet

Prolific English blues-rock guitarist, singer and composer affectionately known as "Slow Hand". Born 30 March, 1945 in Ripley, Surrey, England, UK. Married to Pattie Boyd from 1979 to 1989.
His holding company was Marshbrook Limited from 20 October 1967 to 6 November 2018.
Received the Order of the British Empire (CBE-Commander).
Inducted into Rock And Roll Hall of Fame in 2000 (Performer).
Inducted into Songwriters Hall of Fame in 2001.

~ discogs
Eric Clapton - Live in Los Angeles 1994 (2022):

Tracklist:

01 - Motherless Children (00:03:04)
02 - Malted Milk (00:03:43)
03 - How Long Blues (00:03:21)
04 - Kidman Blues (00:02:53)
05 - Country Jail Blues (00:02:59)
06 - Forty-Four (00:04:19)
07 - Blues Leave Me Alone (00:04:17)
08 - Standin' Round Crying (00:03:47)
09 - Hoochie Coochie Man (00:03:47)
10 - It Hurts Me Too (00:03:34)
11 - Blues Before Sunrise (00:02:54)
12 - Third Degree (00:05:14)
13 - Reconsider Baby (00:03:48)
14 - Sinner's Prayer (00:03:49)
15 - I Can't Judge Nobody (00:02:56)
16 - Someday After A While (00:04:06)
17 - I'm Tore Down (00:03:34)
18 - Have You Ever Loved A Woman (00:05:59)
19 - Crosscut Saw (00:03:54)
20 - Five Long Years (00:04:38)

foobar2000 1.6.11 / Dynamic Range Meter 1.1.1
log date: 2022-07-04 21:22:04

––––––––––––––––––––––––––––––––––––––––
Analyzed: Eric Clapton / Eric Clapton: Live in Los Angeles
––––––––––––––––––––––––––––––––––––––––

DR Peak RMS Duration Track
––––––––––––––––––––––––––––––––––––––––
DR6 -0.10 dB -8.47 dB 3:04 01-Motherless Children
DR10 -0.10 dB -13.40 dB 3:44 02-Malted Milk
DR8 -0.10 dB -10.20 dB 3:21 03-How Long Blues
DR8 -0.10 dB -9.81 dB 2:53 04-Kidman Blues
DR8 -0.10 dB -9.85 dB 2:59 05-Country Jail Blues
DR5 -0.10 dB -7.93 dB 4:20 06-Forty-Four
DR5 -0.10 dB -8.30 dB 4:18 07-Blues Leave Me Alone
DR6 -0.10 dB -8.39 dB 3:48 08-Standin' Round Crying
DR6 -0.10 dB -7.95 dB 3:48 09-Hoochie Coochie Man
DR6 -0.10 dB -8.07 dB 3:35 10-It Hurts Me Too
DR6 -0.10 dB -7.93 dB 2:54 11-Blues Before Sunrise
DR11 -0.10 dB -13.23 dB 5:15 12-Third Degree
DR6 -0.10 dB -9.17 dB 3:49 13-Reconsider Baby
DR7 -0.10 dB -9.41 dB 3:49 14-Sinner's Prayer
DR7 -0.10 dB -9.00 dB 2:56 15-I Can't Judge Nobody
DR6 -0.10 dB -7.42 dB 4:06 16-Someday After A While
DR5 -0.10 dB -6.80 dB 3:34 17-I'm Tore Down
DR7 -0.10 dB -9.98 dB 6:00 18-Have You Ever Loved A Woman
DR6 -0.10 dB -7.69 dB 3:54 19-Crosscut Saw
DR5 -0.10 dB -7.14 dB 4:38 20-Five Long Years
––––––––––––––––––––––––––––––––––––––––

Number of tracks: 20
Official DR value: DR7

Samplerate: 44100 Hz
Channels: 2
Bits per sample: 24
Bitrate: 1610 kbps
Codec: FLAC

All thanks go to the original releaser

Eric Clapton in my Blog

Download Eric Clapton - Live in Los Angeles 1994 (2022):