Tags
Language
Tags

Ernestine Anderson - The Toast Of The Nation's Critics! (1959/2021) [Official Digital Download 24/96]

Posted By: pyatak
Ernestine Anderson - The Toast Of The Nation's Critics! (1959/2021) [Official Digital Download 24/96]

Ernestine Anderson - The Toast Of The Nation's Critics! (1959/2021) [Official Digital Download 24/96]
FLAC (tracks) 24-bit/96 kHz | Front Cover | Time - 31:58 minutes | 585 MB
Jazz | Label: RevOla, Official Digital Download

Tracks are:- Runnin' Wild; Stardust; Heat Wave; My Ship; Azure-Te; Welcome To The Club; There's A Boat Dat's Leavin' Soon For New York; Social Call; There Will Never Be Another You; A Sleepin' Bee; Interlude. No personnel on solos given or even the name of the orchestra. Rave reviews launched this album when it was released in 1959. "Goldmine" Record Guide rates it at $100 in stereo if in NM condition.

TRACKLIST

1. Ernestine Anderson - Runnin' Wild (Remastered)
2. Ernestine Anderson - Stardust (Remastered)
3. Ernestine Anderson - Heat Wave (Remastered)
4. Ernestine Anderson - My Ship (Remastered)
5. Ernestine Anderson - Azure-Te (Remastered)
6. Ernestine Anderson - Welcome To The Club (Remastered)
7. Ernestine Anderson - There's A Boat Dat's Leavin' Soon For New York (Remastered)
8. Ernestine Anderson - Social Call (Remastered)
9. Ernestine Anderson - There Will Never Be Another You (Remastered)
10. Ernestine Anderson - A Sleepin' Bee (Remastered)
11. Ernestine Anderson - Interlude (Remastered)

foobar2000 1.6.2 / Dynamic Range Meter 1.1.1
log date: 2021-08-10 11:19:55

––––––––––––––––––––––––––––––––––––––––
Analyzed: Ernestine Anderson / The Toast Of The Nation's Critics!
––––––––––––––––––––––––––––––––––––––––

DR Peak RMS Duration Track
––––––––––––––––––––––––––––––––––––––––
DR11 -2.87 dB -16.02 dB 1:40 01-Runnin' Wild (Remastered)
DR11 -3.04 dB -17.28 dB 4:46 02-Stardust (Remastered)
DR12 -2.69 dB -17.44 dB 1:52 03-Heat Wave (Remastered)
DR11 -2.96 dB -18.42 dB 3:43 04-My Ship (Remastered)
DR12 -2.93 dB -17.81 dB 2:58 05-Azure-Te (Remastered)
DR12 -2.91 dB -17.74 dB 4:24 06-Welcome To The Club (Remastered)
DR12 -2.84 dB -16.94 dB 2:16 07-There's A Boat Dat's Leavin' Soon For New York (Remastered)
DR11 -2.67 dB -17.05 dB 2:46 08-Social Call (Remastered)
DR11 -2.91 dB -16.36 dB 1:01 09-There Will Never Be Another You (Remastered)
DR11 -2.45 dB -16.78 dB 2:06 10-A Sleepin' Bee (Remastered)
DR10 -2.91 dB -16.56 dB 4:25 11-Interlude (Remastered)
––––––––––––––––––––––––––––––––––––––––

Number of tracks: 11
Official DR value: DR11

Samplerate: 96000 Hz
Channels: 2
Bits per sample: 24
Bitrate: 2457 kbps
Codec: FLAC
================================================================================



Thanks to the Original customer.