Estelle Revaz & Arie van Beek - Journey to Geneva (2021) [Official Digital Download 24/96]

Posted By: pyatak
Estelle Revaz & Arie van Beek - Journey to Geneva (2021) [Official Digital Download 24/96]

Estelle Revaz & Arie van Beek - Journey to Geneva (2021) [Official Digital Download 24/96]
FLAC (tracks) 24-bit/96 kHz | Front Cover | Time - 58:02 minutes | 1,03 GB
Classical | Label: Solo Musica, Official Digital Download

The Geneva Chamber Orchestra has always ardently championed renowned Geneva composers such as Ernest Bloch, Frank Martin, Émile Jaques-Dalcroze, Xavier Dayer or Michael Jarrell. Geneva-based cellist Estelle Revaz has been artist-in-residence to the Geneva Chamber Orchestra since 2017-2018. For her second release on Solo Musica, BACH & FRIENDS - a musical dialogue between Bachs Solo Cello Suites and works by major contemporary composers she commissioned a new piece from Geneva composer Xavier Dayer. In the context of her residency, the choice of Frank Martins works for cello and orchestra was obvious, all the more so as Dutch musical director Arie van Beek provided a link between the composers Swiss origins and the Netherlands, his adopted country. Adding an original piece by Xavier Dayer to the programme seemed another obvious choice. Cantus II for solo cello resulted from a most fruitful collaboration between composer and performer and Xavier Dayers international profile fully justified this unique programme combination.

TRACKLIST

01. Estelle Revaz, L'Orchestre de Chambre de Geneve & Arie van Beek - Cello Concerto: I. Lento
02. Estelle Revaz, L'Orchestre de Chambre de Geneve & Arie van Beek - Cello Concerto: II. Adagietto
03. Estelle Revaz, L'Orchestre de Chambre de Geneve & Arie van Beek - Cello Concerto: III. Vivace selvaggio ed aspro
04. Estelle Revaz, L'Orchestre de Chambre de Geneve & Arie van Beek - Ballade for Cello & Chamber Orchestra
05. Estelle Revaz, L'Orchestre de Chambre de Geneve & Arie van Beek - Lignes d'est

foobar2000 1.6.2 / Dynamic Range Meter 1.1.1
log date: 2021-01-13 22:15:34

––––––––––––––––––––––––––––––––––––––––
Analyzed: Estelle Revaz, L'Orchestre de Chambre de Geneve & Arie van Beek / Journey to Geneva
––––––––––––––––––––––––––––––––––––––––

DR Peak RMS Duration Track
––––––––––––––––––––––––––––––––––––––––
DR15 -0.23 dB -20.47 dB 9:19 01-Cello Concerto: I. Lento
DR15 -0.21 dB -20.55 dB 7:54 02-Cello Concerto: II. Adagietto
DR12 0.00 dB -17.72 dB 8:40 03-Cello Concerto: III. Vivace selvaggio ed aspro
DR14 -0.27 dB -19.52 dB 15:47 04-Ballade for Cello & Chamber Orchestra
DR16 -0.45 dB -20.49 dB 16:23 05-Lignes d'est
––––––––––––––––––––––––––––––––––––––––

Number of tracks: 5
Official DR value: DR14

Samplerate: 96000 Hz
Channels: 2
Bits per sample: 24
Bitrate: 2555 kbps
Codec: FLAC
================================================================================



Thanks to the Original customer.