Tags
Language
Tags
February 2023
Su Mo Tu We Th Fr Sa
29 30 31 1 2 3 4
5 6 7 8 9 10 11
12 13 14 15 16 17 18
19 20 21 22 23 24 25
26 27 28 1 2 3 4

Eugene Ormandy - The Philadelphia Orchestra Plays Victor Herbert (Remastered) (1953/2021) [Official Digital Download 24/96]

Posted By: pyatak
Eugene Ormandy - The Philadelphia Orchestra Plays Victor Herbert (Remastered) (1953/2021) [Official Digital Download 24/96]

Eugene Ormandy - The Philadelphia Orchestra Plays Victor Herbert (Remastered) (1953/2021) [Official Digital Download 24/96]
FLAC (tracks) 24-bit/96 kHz | Front Cover | Time - 43:45 minutes | 464 MB
Classical | Label: Sony Classical, Official Digital Download

Eugene Ormandy KBE (born Jenő Blau; November 18, 1899 – March 12, 1985) was a Hungarian-American conductor and violinist, best known for his association with the Philadelphia Orchestra, as its music director. His 44-year association with the orchestra is one of the longest enjoyed by any conductor with a single orchestra. Under his baton, the Philadelphia Orchestra had three gold records and won two Grammy Awards.

TRACKLIST

1. Eugene Ormandy - Panamericana (Remastered)
2. Eugene Ormandy - American Fantasy (Remastered)
3. Eugene Ormandy - Irish Rhapsody (Remastered)
4. Eugene Ormandy - Selections from "Naughty Marietta" (Remastered)
5. Eugene Ormandy - Selections from "The Fortune Teller" (Remastered)

foobar2000 1.6.2 / Dynamic Range Meter 1.1.1
log date: 2021-05-19 17:45:21

––––––––––––––––––––––––––––––––––––––––
Analyzed: Eugene Ormandy / The Philadelphia Orchestra Plays Victor Herbert (Remastered)
––––––––––––––––––––––––––––––––––––––––

DR Peak RMS Duration Track
––––––––––––––––––––––––––––––––––––––––
DR12 -1.10 dB -15.60 dB 3:52 01-Panamericana (Remastered)
DR11 -1.11 dB -15.84 dB 9:51 02-American Fantasy (Remastered)
DR12 -1.32 dB -17.89 dB 13:30 03-Irish Rhapsody (Remastered)
DR11 0.00 dB -16.57 dB 8:10 04-Selections from "Naughty Marietta" (Remastered)
DR12 -0.45 dB -16.22 dB 8:22 05-Selections from "The Fortune Teller" (Remastered)
––––––––––––––––––––––––––––––––––––––––

Number of tracks: 5
Official DR value: DR12

Samplerate: 96000 Hz
Channels: 2
Bits per sample: 24
Bitrate: 1486 kbps
Codec: FLAC
================================================================================



Thanks to the Original customer.