Fabrice Ferez - Telemann - Fantasia & Canon for Oboe Solo (2020) [Official Digital Download 24/96]

Posted By: pyatak
Fabrice Ferez - Telemann - Fantasia & Canon for Oboe Solo (2020) [Official Digital Download 24/96]

Fabrice Ferez - Telemann - Fantasia & Canon for Oboe Solo (2020) [Official Digital Download 24/96]
FLAC (tracks) 24-bit/88.2 kHz | Front Cover | Time - 54:26 minutes | 884 MB
Classical | Label: VDE-GALLO, Official Digital Download

Telemann, the power of imagination: The cycle of the Twelve fantasias for flute solo, though surrounded by hundreds of oratorios, dozens of passions or operas, holds a singular place in Telemann’s huge work. First of all, it is one of the few rare opuses were engraving and publication was carried out by Telemann himself, in Hamburg, in 1732.

It is also remarkable as the first series of fantasias composed for a wind instrument. This genre, so closely linked to improvisation, was by its very nature intended for keyboard instruments, which were the natural choice of the creators of the time. Diderot’s Encyclopédie actually defines a fantasia as ‘An instrumental work composed as it is performed.’

These Twelve fantasias are a true demonstration of Telemann’s capacity for invention and thus contradict the vision that would make him a composer who was certainly precocious, gifted and prolific but above all routine and conventional. They vividly sketch out, sometimes in a few notes, musical worlds that take us from the most melancholy to the most joyful exaltation with an astonishing sense of contrast and humour.

One could compare them to the works of the great painters, who sometimes say more in their sketches than in their finished artworks.

Vanitas, Vanitatum: François La Riche (1662-1733), the great French oboist whose playing brought glory to the Dresden orchestra and whom Telemann heard in Berlin in Bononcini’s opera Polyphema, may have dreamed of playing these fantasias. They were originally written for the transverse flute, an instrument brought to the fore by La Riche’s fellow musicians Michel Blavet (1700-1768) and Johann Joachim Quantz (1697-1773). Telemann who gave so much to the oboe would certainly have been seduced by this idea. This instrument was so familiar to him, as the king of French music in his hundreds of orchestral ouvertures.

Over the past few decades and particularly from the moment Heinz Holliger (born in 1939) became well-known, contemporary oboists have adopted the Twelve fantasias for themselves as an interesting repertoire for solo instrument of the Baroque period and a suitable counterpart for the repertoire of the twentieth century. Performing them also provides the chance for solitary reflection, an opportunity to encounter oneself. In the opening minor key pages of the second, sixth or eight fantasias this encounter reminds him, like the still lives of the 17th century painters of vanity that ‘thus passes the glory of the world.’

TRACKLIST

01. Fabrice Ferez - Fantasia No. 11 in G Major, TWV 40:12: I. Allegro
02. Fabrice Ferez - Fantasia No. 11 in G Major, TWV 40:12: II. Adagio-Vivace
03. Fabrice Ferez - Fantasia No. 11 in G Major, TWV 40:12: III. Allegro
04. Fabrice Ferez - Canonic Sonata No. 6 in A Minor, TWV 40:123: I. Vivace
05. Fabrice Ferez - Canonic Sonata No. 6 in A Minor, TWV 40:123: II. Soave
06. Fabrice Ferez - Canonic Sonata No. 6 in A Minor, TWV 40:123: III. Allegro assai
07. Fabrice Ferez - Fantasia No. 6 in D Minor, TWV 40:7: I. Dolce
08. Fabrice Ferez - Fantasia No. 6 in D Minor, TWV 40:7: II. Allegro
09. Fabrice Ferez - Fantasia No. 6 in D Minor, TWV 40:7: III. Spirituoso
10. Fabrice Ferez - Fantasia No. 1 in A Major, TWV 40:2: I. Vivace
11. Fabrice Ferez - Fantasia No. 1 in A Major, TWV 40:2: II. Allegro
12. Fabrice Ferez - Fantasia No. 2 in A Minor, TWV 40:3: I. Grave
13. Fabrice Ferez - Fantasia No. 2 in A Minor, TWV 40:3: II. Vivace
14. Fabrice Ferez - Fantasia No. 2 in A Minor, TWV 40;3: III. Adagio
15. Fabrice Ferez - Fantasia No. 2 in A Minor, TWV 40:3: IV. Allegro
16. Fabrice Ferez - Canonic Sonata No. 1 in G Major, TWV 40:118: I. Vivace
17. Fabrice Ferez - Canonic Sonata No. 1 in G Major, TWV 40:118: II. Adagio
18. Fabrice Ferez - Canonic Sonata No. 1 in G Major, TWV 40:118: III. Allegro
19. Fabrice Ferez - Fantasia No. 8 in E Minor, TWV 40:9: I. Largo
20. Fabrice Ferez - Fantasia No. 8 in E Minor, TWV 40:9: II. Spirituoso
21. Fabrice Ferez - Fantasia No. 8 in E Minor, TWV 40:9: III. Allegro
22. Fabrice Ferez - Partita No. 2 in D Minor, BWV 1004: I. Allemande
23. Fabrice Ferez - Partita No. 2 in D Minor, BWV 1004: IV. Gigue
24. Fabrice Ferez - Fantasia No. 4 in B-Flat Major, TWV 40:5: I. Andante
25. Fabrice Ferez - Fantasia No. 4 in B-Flat Major, TWV 40:5: II. Allegro
26. Fabrice Ferez - Fantasia No. 4 in B-Flat Major, TWV 40:5: III. Presto
27. Fabrice Ferez - Flute Duet No. 2 in E-Flat Major, F. 55: I. Allegro
28. Fabrice Ferez - Canonic Sonata No. 6 in A Minor, TWV 40:123: I. Vivace (Accompaniment)
29. Fabrice Ferez - Canonic Sonata No. 6 in A Minor, TWV 40:123: II. Soave (Accompaniment)
30. Fabrice Ferez - Canonic Sonata No. 6 in A Minor, TWV 40:123: III. Allegro assai (Accompaniment)
31. Fabrice Ferez - Canonic Sonata No. 1 in G Major, TWV 40:118: I. Vivace (Accompaniment)
32. Fabrice Ferez - Canonic Sonata No. 1 in G Major, TWV 40:118: II. Adagio (Accompaniment)
33. Fabrice Ferez - Canonic Sonata No. 1 in G Major, TWV 40:118: III. Allegro (Accompaniment)

foobar2000 1.6.2 / Dynamic Range Meter 1.1.1
log date: 2020-11-21 17:33:47

––––––––––––––––––––––––––––––––––––––––
Analyzed: Fabrice Ferez / Telemann: Fantasia & Canon for Oboe Solo
––––––––––––––––––––––––––––––––––––––––

DR Peak RMS Duration Track
––––––––––––––––––––––––––––––––––––––––
DR11 -5.09 dB -21.20 dB 1:22 01-Fantasia No. 11 in G Major, TWV 40:12: I. Allegro
DR12 -5.30 dB -21.07 dB 1:26 02-Fantasia No. 11 in G Major, TWV 40:12: II. Adagio-Vivace
DR11 -8.61 dB -23.92 dB 0:49 03-Fantasia No. 11 in G Major, TWV 40:12: III. Allegro
DR12 -1.81 dB -18.21 dB 1:56 04-Canonic Sonata No. 6 in A Minor, TWV 40:123: I. Vivace
DR11 -1.84 dB -17.26 dB 2:21 05-Canonic Sonata No. 6 in A Minor, TWV 40:123: II. Soave
DR10 -2.55 dB -16.37 dB 2:00 06-Canonic Sonata No. 6 in A Minor, TWV 40:123: III. Allegro assai
DR9 -4.36 dB -20.34 dB 1:42 07-Fantasia No. 6 in D Minor, TWV 40:7: I. Dolce
DR11 -5.29 dB -21.45 dB 1:16 08-Fantasia No. 6 in D Minor, TWV 40:7: II. Allegro
DR11 -7.19 dB -23.12 dB 1:05 09-Fantasia No. 6 in D Minor, TWV 40:7: III. Spirituoso
DR12 -4.54 dB -21.42 dB 2:07 10-Fantasia No. 1 in A Major, TWV 40:2: I. Vivace
DR12 -5.57 dB -21.91 dB 1:18 11-Fantasia No. 1 in A Major, TWV 40:2: II. Allegro
DR10 -5.72 dB -21.87 dB 0:46 12-Fantasia No. 2 in A Minor, TWV 40:3: I. Grave
DR12 -5.19 dB -22.05 dB 1:22 13-Fantasia No. 2 in A Minor, TWV 40:3: II. Vivace
DR10 -5.22 dB -20.24 dB 1:30 14-Fantasia No. 2 in A Minor, TWV 40;3: III. Adagio
DR11 -6.07 dB -21.78 dB 0:51 15-Fantasia No. 2 in A Minor, TWV 40:3: IV. Allegro
DR11 -3.67 dB -18.32 dB 1:43 16-Canonic Sonata No. 1 in G Major, TWV 40:118: I. Vivace
DR11 -1.83 dB -17.60 dB 1:34 17-Canonic Sonata No. 1 in G Major, TWV 40:118: II. Adagio
DR10 -1.10 dB -18.10 dB 1:46 18-Canonic Sonata No. 1 in G Major, TWV 40:118: III. Allegro
DR12 -3.34 dB -21.47 dB 1:54 19-Fantasia No. 8 in E Minor, TWV 40:9: I. Largo
DR11 -5.05 dB -20.53 dB 1:08 20-Fantasia No. 8 in E Minor, TWV 40:9: II. Spirituoso
DR11 -7.05 dB -23.40 dB 1:00 21-Fantasia No. 8 in E Minor, TWV 40:9: III. Allegro
DR11 -1.53 dB -18.17 dB 2:21 22-Partita No. 2 in D Minor, BWV 1004: I. Allemande
DR12 -3.27 dB -19.59 dB 2:44 23-Partita No. 2 in D Minor, BWV 1004: IV. Gigue
DR10 -4.66 dB -21.02 dB 1:28 24-Fantasia No. 4 in B-Flat Major, TWV 40:5: I. Andante
DR11 -4.09 dB -19.79 dB 1:35 25-Fantasia No. 4 in B-Flat Major, TWV 40:5: II. Allegro
DR10 -4.33 dB -21.98 dB 0:55 26-Fantasia No. 4 in B-Flat Major, TWV 40:5: III. Presto
DR11 -1.29 dB -17.17 dB 3:19 27-Flute Duet No. 2 in E-Flat Major, F. 55: I. Allegro
DR12 -1.80 dB -18.71 dB 1:56 28-Canonic Sonata No. 6 in A Minor, TWV 40:123: I. Vivace (Accompaniment)
DR11 -2.68 dB -20.16 dB 2:21 29-Canonic Sonata No. 6 in A Minor, TWV 40:123: II. Soave (Accompaniment)
DR11 -2.93 dB -19.31 dB 2:01 30-Canonic Sonata No. 6 in A Minor, TWV 40:123: III. Allegro assai (Accompaniment)
DR11 -4.63 dB -20.33 dB 1:43 31-Canonic Sonata No. 1 in G Major, TWV 40:118: I. Vivace (Accompaniment)
DR10 -3.88 dB -19.35 dB 1:34 32-Canonic Sonata No. 1 in G Major, TWV 40:118: II. Adagio (Accompaniment)
DR10 -5.54 dB -20.67 dB 1:46 33-Canonic Sonata No. 1 in G Major, TWV 40:118: III. Allegro (Accompaniment)
––––––––––––––––––––––––––––––––––––––––

Number of tracks: 33
Official DR value: DR11

Samplerate: 88200 Hz
Channels: 2
Bits per sample: 24
Bitrate: 2227 kbps
Codec: FLAC
================================================================================



Thanks to the Original customer.