Fazil Say - Beethoven: Complete Piano Sonatas (2020) [Official Digital Download 24/96]

Posted By: SERTiL
Fazil Say - Beethoven: Complete Piano Sonatas (2020) [Official Digital Download 24/96]

Fazil Say - Beethoven: Complete Piano Sonatas (2020)
FLAC (tracks) 24-bit/96 kHz | Time - 604:01 minutes | 8.57 GB
Studio Master, Official Digital Download | Artwork: Front Cover

“Beethoven was my idol and my mentor”

“I began this project in May 2017. At the time I had only ever played 14 of Beethoven’s sonatas, so I had 18 more to learn from scratch. 2020 is Beethoven’s 250th anniversary, and I aimed to complete the project by that date.

“I first played Beethoven’s smaller sonatas at the age of eight. In my 30s [Say turns 50 in January 2020], I recorded five of his sonatas for an album, but I was never happy with the results. Over the years I’ve occasionally included sonatas like the ‘Pathetique’, op.109, ‘Hammerklavier’ and ‘Les Adieux’ in my concert repertoire. For the present recording, however, I set myself a rule: ‘Make sure you’re happy with the results.’

“Our recording of this Beethoven cycle occupied a total of 18 days, divided into five different sessions spread over a two-year period. It was labour-intensive, but working on 32 Beethoven pieces of infinite depth gave me an inexhaustible motivation. Throughout those two years, Beethoven was my idol and my mentor.”

“I wanted to present the music with the utmost freshness and brilliance”

“Recording Beethoven’s 32 sonatas was a lengthy and tiring process, especially as they have previously been recorded by some of the greatest artists of the 20th century … I wanted to immerse myself in a difficult project, devote myself to it and become detached from everything else, from all my anxieties and worries about the future. I wanted to come to terms with myself, understand the things that were making me unhappy and become a better version of myself … To play better, to use my body and mind better, to speed up my learning process, to analyse things more deeply and, ultimately, create one of the greatest interpretations of one of the greatest composers.

“This is a 605-minute piece containing 32 sonatas. It’s like a sacred text for musicians. I wanted to give the world a great gift. I spent two years of my life working day and night to reacquaint 21st-century listeners with the sonatas in the here and now, and to present the music with the utmost freshness and brilliance.

“To date I have recorded 40 albums and composed 80 works. I have given around 3,000 concerts in various countries around the world. In the wake of all that I’d developed a desire to go beyond these achievements and do some of the very sincerest work I was capable of. That was how these recordings came about.

“There was an interesting new development during this recording process, in that I approached the playing with the mindset of a composer rather than that of a performer. When we interpret a composer’s work, we need to remain faithful to it. In other words, we need to feel like a composer. Compositions should be interpreted with the same freshness as a completely new piece of music that has just been created. To achieve this, we need to have a sense of what the composer imagined.”

“Two important imaginary creations”

“During my two years working on Beethoven, I came up with two important imaginary creations. The first was the ‘Fazıl Say Beethoven Orchestra’. I wanted to experience every piano sonata as though it were a symphony, to hear every sonata and every note in my mind, as though listening to an orchestra. I had imaginary rehearsals with this imaginary orchestra. Sometimes this imaginary scene was presided over by a conservative conductor, or one who was a manic Beethoven enthusiast; these imaginary rehearsals could be led by a wild Karajan or a sedate Furtwangler. They all directed my orchestra. We always held four-hour dress rehearsals for each sonata.

“I took another, even more fantastical approach. I played the sonatas to an ‘imaginary Beethoven’, who sat next to me, brimming with boundless energy and musical spirit. The imaginary Beethoven showed me his music, sometimes soothing me, sometimes wrestling with the dissatisfaction in my mind. This was the hardest and most unforgiving stage.

“Inside this imaginary world, I felt a need to prove myself. These imaginings ended with the start of recording in May 2017, and when sessions came to a close in May 2019, a strange weight lifted from me. I felt like I was in a huge void.”

“I devised my own personal leitmotifs.”

“Music should relate something, and the person relating it should make this narrative as clear as possible … This makes it important to assign names to melodies, to develop a way of working in which the performer devises leitmotifs. In this way it is possible to distance your thoughts from the mathematics of the text and instead to dramatise it.

“I devised my own personal leitmotifs for every theme of every sonata. For example, I came up with the ‘old man’ leitmotif for the heaviest section of the ‘Pastoral’ Sonata, the ‘distant drums of approaching warships’ leitmotif in the ‘Waldstein’, the ‘hopeless love’ leitmotif in Op.109, the ‘hope’ or ‘rebellion’ leitmotif in the ‘Appassionata’, and so on. I also gave names to some of the nameless sonatas, as I did when recording the Mozart cycle.

“A revolutionary composer starting to create music 50 to 100 years ahead of its time.”

“Together with Beethoven’s extraordinary mastery of all piano techniques, those who interpret his music must also take into account the things he did instinctively as a pianist. I want to hear Beethoven in the music.

“The works of Beethoven’s later period contain momentous steps towards Brahms, Wagner, Schumann and the composers of later generations. This is evident not just in the harmonic aspects and atmosphere of the works, but also in his voicing for the piano, which gradually takes on a more orchestral texture. I think the timbre of his last six sonatas has a very different tone to his previous ones. In fact, we can follow this development from the ‘Appassionata’ Sonata onwards. In my mind, it’s an orchestra that’s playing there. Particularly in the ‘Hammerklavier’ Sonata we can see a Beethoven making musical inroads into future eras, a revolutionary composer starting to create music 50 to 100 years ahead of its time.

“Music should be new every time it’s played. Each time a piece is performed, it should feel as though it has just been written. What matters is what we are saying and which feelings we convey to the human race. No one should say, ‘Beethoven played it like this, and everything else is wrong’. Beethoven would never have said that. Different interpretations are a composer’s delight.

Tracklist:
01. Piano Sonata No. 1 in F Minor, Op. 2 No. 1: I. Allegro (5:03)
02. Piano Sonata No. 1 in F Minor, Op. 2 No. 1: II. Adagio (5:19)
03. Piano Sonata No. 1 in F Minor, Op. 2 No. 1: III. Menuetto (Allegretto) - Trio (3:22)
04. Piano Sonata No. 1 in F Minor, Op. 2 No. 1: IV. Prestissimo (7:47)
05. Piano Sonata No. 2 in A Major, Op. 2 No. 2: I. Allegro vivace (7:07)
06. Piano Sonata No. 2 in A Major, Op. 2 No. 2: II. Largo appassionato (5:42)
07. Piano Sonata No. 2 in A Major, Op. 2 No. 2: III. Scherzo (Allegretto) (3:34)
08. Piano Sonata No. 2 in A Major, Op. 2 No. 2: IV. Rondo (Grazioso) (5:49)
09. Piano Sonata No. 3 in C Major, Op. 2 No. 3: I. Allegro con brio (10:13)
10. Piano Sonata No. 3 in C Major, Op. 2 No. 3: II. Adagio (6:02)
11. Piano Sonata No. 3 in C Major, Op. 2 No. 3: III. Scherzo (Allegro) - Trio (3:11)
12. Piano Sonata No. 3 in C Major, Op. 2 No. 3: IV. Allegro assai (5:22)
13. Piano Sonata No. 4 in E-Flat Major, Op. 7: I. Allegro molto e con brio (8:23)
14. Piano Sonata No. 4 in E-Flat Major, Op. 7: II. Largo con gran espressione (8:20)
15. Piano Sonata No. 4 in E-Flat Major, Op. 7: III. Allegro (4:52)
16. Piano Sonata No. 4 in E-Flat Major, Op. 7: IV. Rondo (Poco allegretto e grazioso) (6:45)
17. Piano Sonata No. 5 in C Minor, Op. 10 No. 1: I. Allegro molto e con brio (5:43)
18. Piano Sonata No. 5 in C Minor, Op. 10 No. 1: II. Adagio molto (7:24)
19. Piano Sonata No. 5 in C Minor, Op. 10 No. 1: III. Finale (Prestissimo) (5:09)
20. Piano Sonata No. 6 in F Major, Op. 10 No. 2: I. Allegro (8:25)
21. Piano Sonata No. 6 in F Major, Op. 10 No. 2: II. Allegretto (3:19)
22. Piano Sonata No. 6 in F Major, Op. 10 No. 2: III. Presto (4:02)
23. Piano Sonata No. 7 in D Major, Op. 10 No. 3: I. Presto (7:08)
24. Piano Sonata No. 7 in D Major, Op. 10 No. 3: II. Largo e mesto (7:12)
25. Piano Sonata No. 7 in D Major, Op. 10 No. 3: III. Menuetto (Allegro) - Trio (3:00)
26. Piano Sonata No. 7 in D Major, Op. 10 No. 3: IV. Rondo (Allegro) (4:10)
27. Piano Sonata No. 8 in C Minor, Op. 13, "Pathétique": I. Grave - Allegro di molto e con brio (8:17)
28. Piano Sonata No. 8 in C Minor, Op. 13, "Pathétique": II. Adagio cantabile (5:25)
29. Piano Sonata No. 8 in C Minor, Op. 13, "Pathétique": III. Rondo (Allegro) (4:36)
30. Piano Sonata No. 9 in E Major, Op. 14 No. 1: I. Allegro (6:49)
31. Piano Sonata No. 9 in E Major, Op. 14 No. 1: II. Allegretto (3:06)
32. Piano Sonata No. 9 in E Major, Op. 14 No. 1: III. Rondo (Allegro comodo) (3:45)
33. Piano Sonata No. 10 in G Major, Op. 14 No. 2: I. Allegro (6:16)
34. Piano Sonata No. 10 in G Major, Op. 14 No. 2: II. Andante (6:18)
35. Piano Sonata No. 10 in G Major, Op. 14 No. 2: III. Scherzo (Allegro assai) (3:16)
36. Piano Sonata No. 11 in B-Flat Major, Op. 22: I. Allegro con brio (7:32)
37. Piano Sonata No. 11 in B-Flat Major, Op. 22: II. Adagio con molto espressione (7:31)
38. Piano Sonata No. 11 in B-Flat Major, Op. 22: III. Menuetto (3:27)
39. Piano Sonata No. 11 in B-Flat Major, Op. 22: IV. Rondo (Allegretto) (5:54)
40. Piano Sonata No. 12 in A-Flat Major, Op. 26, "Funeral March": I. Andante con variazioni (Tema) (1:10)
41. Piano Sonata No. 12 in A-Flat Major, Op. 26, "Funeral March": I. Andante con variazioni - Variation 1 (1:10)
42. Piano Sonata No. 12 in A-Flat Major, Op. 26, "Funeral March": I. Andante con variazioni - Variation 2 (0:49)
43. Piano Sonata No. 12 in A-Flat Major, Op. 26, "Funeral March": I. Andante con variazioni - Variation 3 (0:55)
44. Piano Sonata No. 12 in A-Flat Major, Op. 26, "Funeral March": I. Andante con variazioni - Variation 4 (0:46)
45. Piano Sonata No. 12 in A-Flat Major, Op. 26, "Funeral March": I. Andante con variazioni - Variation 5 (1:24)
46. Piano Sonata No. 12 in A-Flat Major, Op. 26, "Funeral March": II. Scherzo (Allegro molto) - Trio (2:56)
47. Piano Sonata No. 12 in A-Flat Major, Op. 26, "Funeral March": III. Marcia funebre sulla morte d'un eroe (Maestoso andante) (7:26)
48. Piano Sonata No. 12 in A-Flat Major, Op. 26, "Funeral March": IV. Allegro (2:52)
49. Piano Sonata No. 13 in E-Flat Major, Op. 27 No. 1, "Quasi una fantasia": I. Andante - Allegro (4:08)
50. Piano Sonata No. 13 in E-Flat Major, Op. 27 No. 1, "Quasi una fantasia": II. Allegro molto e vivace (1:55)
51. Piano Sonata No. 13 in E-Flat Major, Op. 27 No. 1, "Quasi una fantasia": III. Adagio con espressione (3:21)
52. Piano Sonata No. 13 in E-Flat Major, Op. 27 No. 1, "Quasi una fantasia": IV. Allegro vivace (5:58)
53. Piano Sonata No. 14 in C-Sharp Minor, Op. 27 No. 2, "Moonlight": I. Adagio sostenuto (7:17)
54. Piano Sonata No. 14 in C-Sharp Minor, Op. 27 No. 2, "Moonlight": II. Allegretto (1:53)
55. Piano Sonata No. 14 in C-Sharp Minor, Op. 27 No. 2, "Moonlight": III. Presto agitato (7:02)
56. Piano Sonata No. 15 in D Major, Op. 28, "Pastoral": I. Allegro (8:12)
57. Piano Sonata No. 15 in D Major, Op. 28, "Pastoral": II. Andante (8:42)
58. Piano Sonata No. 15 in D Major, Op. 28, "Pastoral": III. Scherzo (Allegro vivace) (2:27)
59. Piano Sonata No. 15 in D Major, Op. 28, "Pastoral": IV. Rondo (Allegro ma non troppo) (4:17)
60. Piano Sonata No. 16 in G Major, Op. 31 No. 1: I. Allegro vivace (6:25)
61. Piano Sonata No. 16 in G Major, Op. 31 No. 1: II. Adagio grazioso (11:20)
62. Piano Sonata No. 16 in G Major, Op. 31 No. 1: III. Rondo (Allegretto - Presto) (5:45)
63. Piano Sonata No. 17 in D Minor, Op. 31 No. 2, "The Tempest": I. Largo - Allegro (7:41)
64. Piano Sonata No. 17 in D Minor, Op. 31 No. 2, "The Tempest": II. Adagio (6:17)
65. Piano Sonata No. 17 in D Minor, Op. 31 No. 2, "The Tempest": III. Allegretto (5:47)
66. Piano Sonata No. 18 in E-Flat Major, Op. 31 No. 3: I. Allegro (7:20)
67. Piano Sonata No. 18 in E-Flat Major, Op. 31 No. 3: II. Scherzo (Allegretto vivace) (5:14)
68. Piano Sonata No. 18 in E-Flat Major, Op. 31 No. 3: III. Menuetto (Moderato e grazioso) (4:11)
69. Piano Sonata No. 18 in E-Flat Major, Op. 31 No. 3: IV. Presto con fuoco (4:35)
70. Piano Sonata No. 19 in G Minor, Op. 49 No. 1: I. Andante (4:52)
71. Piano Sonata No. 19 in G Minor, Op. 49 No. 1: II. Rondo (Allegro) (3:16)
72. Piano Sonata No. 20 in G Major, Op. 49 No. 2: I. Allegro ma non troppo (4:38)
73. Piano Sonata No. 20 in G Major, Op. 49 No. 2: II. Tempo di Menuetto (3:50)
74. Piano Sonata No. 21 in C Major, Op. 53, "Waldstein": I. Allegro con brio (10:20)
75. Piano Sonata No. 21 in C Major, Op. 53, "Waldstein": II. Introduzione (Adagio molto) (3:16)
76. Piano Sonata No. 21 in C Major, Op. 53, "Waldstein": III. Rondo (Allegretto moderato- Prestissimo) (9:27)
77. Piano Sonata No. 22 in F Major, Op. 54: I. In Tempo d'un menuetto (5:54)
78. Piano Sonata No. 22 in F Major, Op. 54: II. Allegretto - Più allegro (5:22)
79. Piano Sonata No. 23 in F Minor, Op. 57, "Appassionata": I. Allegro assai (9:10)
80. Piano Sonata No. 23 in F Minor, Op. 57, "Appassionata": II. Andante con moto (5:22)
81. Piano Sonata No. 23 in F Minor, Op. 57, "Appassionata": III. Allegro ma non troppo - Presto (7:27)
82. Piano Sonata No. 24 in F-Sharp Major, Op. 78, "A Thérèse": I. Adagio cantabile - Allegro ma non troppo (6:52)
83. Piano Sonata No. 24 in F-Sharp Major, Op. 78, "A Thérèse": II. Allegro vivace (3:05)
84. Piano Sonata No. 25 in G Major, Op. 79: I. Presto alla tedesca (4:19)
85. Piano Sonata No. 25 in G Major, Op. 79: II. Andante (2:36)
86. Piano Sonata No. 25 in G Major, Op. 79: III. Vivace (2:00)
87. Piano Sonata No. 26 in E-Flat Major, Op. 81a, "Das Lebewohl": I. Das Lebewohl (Adagio - Allegro) (6:28)
88. Piano Sonata No. 26 in E-Flat Major, Op. 81a, "Das Lebewohl": II. Abwesenheit (Andante espressivo) (3:18)
89. Piano Sonata No. 26 in E-Flat Major, Op. 81a, "Das Lebewohl": III. Das Wiedersehen (Vivacissimamente - Poco andante) (5:50)
90. Piano Sonata No. 27 in E Minor, Op. 90: I. Mit Lebhaftigkeit und durchaus mit Empfindung und Ausdruck (5:20)
91. Piano Sonata No. 27 in E Minor, Op. 90: II. Nicht zu geschwind und sehr singbar vorzutragen (6:27)
92. Piano Sonata No. 28 in A Major, Op. 101: I. Etwas lebhaft und mit der innigsten Empfindung (Allegretto ma non troppo) (4:14)
93. Piano Sonata No. 28 in A Major, Op. 101: II. Lebhaft und marschmässig (Vivace alla marcia) (5:57)
94. Piano Sonata No. 28 in A Major, Op. 101: III. Langsam und sehnsuchtsvoll (Adagio ma non troppo con affetto) (2:20)
95. Piano Sonata No. 28 in A Major, Op. 101: IV. Geschwind, doch nicht zu sehr und mit Entschlossenheit (Allegro) (7:57)
96. Piano Sonata No. 29 in B-Flat Major, Op. 106, "Hammerklavier": I. Allegro (10:45)
97. Piano Sonata No. 29 in B-Flat Major, Op. 106, "Hammerklavier": II. Scherzo (Assai vivace - Presto - Prestissimo) (2:53)
98. Piano Sonata No. 29 in B-Flat Major, Op. 106, "Hammerklavier": III. Adagio sostenuto, appassionato e con molto sentimento (14:46)
99. Piano Sonata No. 29 in B-Flat Major, Op. 106, "Hammerklavier": IV. Introduzione (Largo) - Fuga [Allegro risoluto] (11:33)
100. Piano Sonata No. 30 in E Major, Op. 109: I. Vivace - Adagio espressivo (3:49)
101. Piano Sonata No. 30 in E Major, Op. 109: II. Prestissimo (2:38)
102. Piano Sonata No. 30 in E Major, Op. 109: III. Tema (Gesangvoll mit innigster Empfindung - Andante molto cantabile ed espressivo) (2:24)
103. Piano Sonata No. 30 in E Major, Op. 109: III. Variation 1 - Molto espressivo (1:39)
104. Piano Sonata No. 30 in E Major, Op. 109: III. Variation 2 - Leggiermente (1:35)
105. Piano Sonata No. 30 in E Major, Op. 109: III. Variation 3 - Allegro vivace (0:26)
106. Piano Sonata No. 30 in E Major, Op. 109: III. Variation 4 - Etwas langsamer als das Thema (2:06)
107. Piano Sonata No. 30 in E Major, Op. 109: III. Variation 5 - Allegro ma non troppo (0:53)
108. Piano Sonata No. 30 in E Major, Op. 109: III. Variation 6 - Tempo I del tema. Cantabile (3:24)
109. Piano Sonata No. 31 in A-Flat Major, Op. 110: I. Moderato cantabile, molto espressivo (5:57)
110. Piano Sonata No. 31 in A-Flat Major, Op. 110: II. Scherzo (Allegro molto) (2:14)
111. Piano Sonata No. 31 in A-Flat Major, Op. 110: III. Adagio, ma non troppo - Allegro, ma non troppo (9:43)
112. Piano Sonata No. 32 in C Minor, Op. 111: I. Maestoso - Allegro con brio ed appassionato (9:14)
113. Piano Sonata No. 32 in C Minor, Op. 111: II. Arietta (Adagio molto semplice e cantabile) (15:29)

foobar2000 1.3.7 / Dynamic Range Meter 1.1.1
log date: 2020-01-17 10:59:58

––––––––––––––––––––––––––––––––––––––––
Analyzed: Fazil Say / Beethoven: Complete Piano Sonatas
––––––––––––––––––––––––––––––––––––––––

DR Peak RMS Duration Track
––––––––––––––––––––––––––––––––––––––––
DR15 -0.03 dB -20.16 dB 5:03 01-Piano Sonata No. 1 in F Minor, Op. 2 No. 1: I. Allegro
DR14 -7.26 dB -26.79 dB 5:19 02-Piano Sonata No. 1 in F Minor, Op. 2 No. 1: II. Adagio
DR13 -3.04 dB -23.06 dB 3:22 03-Piano Sonata No. 1 in F Minor, Op. 2 No. 1: III. Menuetto (Allegretto) - Trio
DR13 -2.12 dB -19.47 dB 7:47 04-Piano Sonata No. 1 in F Minor, Op. 2 No. 1: IV. Prestissimo
DR14 -0.52 dB -21.09 dB 7:07 05-Piano Sonata No. 2 in A Major, Op. 2 No. 2: I. Allegro vivace
DR16 -3.46 dB -25.61 dB 5:42 06-Piano Sonata No. 2 in A Major, Op. 2 No. 2: II. Largo appassionato
DR14 -4.04 dB -24.25 dB 3:34 07-Piano Sonata No. 2 in A Major, Op. 2 No. 2: III. Scherzo (Allegretto)
DR14 -2.88 dB -21.49 dB 5:49 08-Piano Sonata No. 2 in A Major, Op. 2 No. 2: IV. Rondo (Grazioso)
DR15 -0.03 dB -19.29 dB 10:13 09-Piano Sonata No. 3 in C Major, Op. 2 No. 3: I. Allegro con brio
DR15 -1.99 dB -24.30 dB 6:02 10-Piano Sonata No. 3 in C Major, Op. 2 No. 3: II. Adagio
DR13 -0.90 dB -19.70 dB 3:11 11-Piano Sonata No. 3 in C Major, Op. 2 No. 3: III. Scherzo (Allegro) - Trio
DR15 -1.24 dB -21.13 dB 5:22 12-Piano Sonata No. 3 in C Major, Op. 2 No. 3: IV. Allegro assai
DR15 -0.03 dB -19.32 dB 8:23 13-Piano Sonata No. 4 in E-Flat Major, Op. 7: I. Allegro molto e con brio
DR15 -3.05 dB -26.43 dB 8:20 14-Piano Sonata No. 4 in E-Flat Major, Op. 7: II. Largo con gran espressione
DR13 -4.30 dB -22.41 dB 4:52 15-Piano Sonata No. 4 in E-Flat Major, Op. 7: III. Allegro
DR14 -2.10 dB -21.08 dB 6:45 16-Piano Sonata No. 4 in E-Flat Major, Op. 7: IV. Rondo (Poco allegretto e grazioso)
DR15 -0.63 dB -20.78 dB 5:43 17-Piano Sonata No. 5 in C Minor, Op. 10 No. 1: I. Allegro molto e con brio
DR15 -8.09 dB -29.12 dB 7:24 18-Piano Sonata No. 5 in C Minor, Op. 10 No. 1: II. Adagio molto
DR14 -0.97 dB -20.74 dB 5:09 19-Piano Sonata No. 5 in C Minor, Op. 10 No. 1: III. Finale (Prestissimo)
DR16 -1.85 dB -22.17 dB 8:25 20-Piano Sonata No. 6 in F Major, Op. 10 No. 2: I. Allegro
DR13 -5.16 dB -23.72 dB 3:19 21-Piano Sonata No. 6 in F Major, Op. 10 No. 2: II. Allegretto
DR14 -1.66 dB -19.53 dB 4:02 22-Piano Sonata No. 6 in F Major, Op. 10 No. 2: III. Presto
DR14 -0.35 dB -19.68 dB 7:08 23-Piano Sonata No. 7 in D Major, Op. 10 No. 3: I. Presto
DR15 -1.86 dB -24.04 dB 7:12 24-Piano Sonata No. 7 in D Major, Op. 10 No. 3: II. Largo e mesto
DR13 -5.25 dB -23.76 dB 3:00 25-Piano Sonata No. 7 in D Major, Op. 10 No. 3: III. Menuetto (Allegro) - Trio
DR13 -3.25 dB -21.95 dB 4:10 26-Piano Sonata No. 7 in D Major, Op. 10 No. 3: IV. Rondo (Allegro)
DR16 -0.13 dB -20.68 dB 8:17 27-Piano Sonata No. 8 in C Minor, Op. 13, "Pathétique": I. Grave - Allegro di molto e con brio
DR14 -3.50 dB -30.21 dB 5:25 28-Piano Sonata No. 8 in C Minor, Op. 13, "Pathétique": II. Adagio cantabile
DR15 -0.53 dB -21.07 dB 4:36 29-Piano Sonata No. 8 in C Minor, Op. 13, "Pathétique": III. Rondo (Allegro)
DR15 -1.79 dB -22.02 dB 6:49 30-Piano Sonata No. 9 in E Major, Op. 14 No. 1: I. Allegro
DR13 -4.61 dB -22.99 dB 3:06 31-Piano Sonata No. 9 in E Major, Op. 14 No. 1: II. Allegretto
DR13 -3.26 dB -22.01 dB 3:45 32-Piano Sonata No. 9 in E Major, Op. 14 No. 1: III. Rondo (Allegro comodo)
DR13 -5.69 dB -23.10 dB 6:16 33-Piano Sonata No. 10 in G Major, Op. 14 No. 2: I. Allegro
DR17 -3.37 dB -28.75 dB 6:18 34-Piano Sonata No. 10 in G Major, Op. 14 No. 2: II. Andante
DR15 -3.22 dB -23.26 dB 3:16 35-Piano Sonata No. 10 in G Major, Op. 14 No. 2: III. Scherzo (Allegro assai)
DR14 -0.92 dB -20.06 dB 7:32 36-Piano Sonata No. 11 in B-Flat Major, Op. 22: I. Allegro con brio
DR14 -6.98 dB -27.86 dB 7:31 37-Piano Sonata No. 11 in B-Flat Major, Op. 22: II. Adagio con molto espressione
DR15 -3.60 dB -22.96 dB 3:27 38-Piano Sonata No. 11 in B-Flat Major, Op. 22: III. Menuetto
DR15 -2.26 dB -21.79 dB 5:54 39-Piano Sonata No. 11 in B-Flat Major, Op. 22: IV. Rondo (Allegretto)
DR11 -9.36 dB -25.18 dB 1:10 40-Piano Sonata No. 12 in A-Flat Major, Op. 26, "Funeral March": I. Andante con variazioni (Tema)
DR10 -7.66 dB -23.24 dB 1:10 41-Piano Sonata No. 12 in A-Flat Major, Op. 26, "Funeral March": I. Andante con variazioni - Variation 1
DR13 -5.38 dB -22.61 dB 0:49 42-Piano Sonata No. 12 in A-Flat Major, Op. 26, "Funeral March": I. Andante con variazioni - Variation 2
DR10 -6.70 dB -21.99 dB 0:55 43-Piano Sonata No. 12 in A-Flat Major, Op. 26, "Funeral March": I. Andante con variazioni - Variation 3
DR12 -9.68 dB -26.86 dB 0:46 44-Piano Sonata No. 12 in A-Flat Major, Op. 26, "Funeral March": I. Andante con variazioni - Variation 4
DR11 -9.68 dB -24.23 dB 1:24 45-Piano Sonata No. 12 in A-Flat Major, Op. 26, "Funeral March": I. Andante con variazioni - Variation 5
DR14 -1.13 dB -20.66 dB 2:56 46-Piano Sonata No. 12 in A-Flat Major, Op. 26, "Funeral March": II. Scherzo (Allegro molto) - Trio
DR15 -2.07 dB -22.39 dB 7:26 47-Piano Sonata No. 12 in A-Flat Major, Op. 26, "Funeral March": III. Marcia funebre sulla morte d'un eroe (Maestoso andante)
DR13 -4.38 dB -20.82 dB 2:52 48-Piano Sonata No. 12 in A-Flat Major, Op. 26, "Funeral March": IV. Allegro
DR16 -2.17 dB -24.88 dB 4:08 49-Piano Sonata No. 13 in E-Flat Major, Op. 27 No. 1, "Quasi una fantasia": I. Andante - Allegro
DR13 -3.39 dB -20.69 dB 1:55 50-Piano Sonata No. 13 in E-Flat Major, Op. 27 No. 1, "Quasi una fantasia": II. Allegro molto e vivace
DR14 -9.75 dB -28.81 dB 3:21 51-Piano Sonata No. 13 in E-Flat Major, Op. 27 No. 1, "Quasi una fantasia": III. Adagio con espressione
DR13 -1.62 dB -19.95 dB 5:58 52-Piano Sonata No. 13 in E-Flat Major, Op. 27 No. 1, "Quasi una fantasia": IV. Allegro vivace
DR15 -10.19 dB -30.85 dB 7:17 53-Piano Sonata No. 14 in C-Sharp Minor, Op. 27 No. 2, "Moonlight": I. Adagio sostenuto
DR12 -5.38 dB -23.18 dB 1:53 54-Piano Sonata No. 14 in C-Sharp Minor, Op. 27 No. 2, "Moonlight": II. Allegretto
DR15 -0.03 dB -18.34 dB 7:02 55-Piano Sonata No. 14 in C-Sharp Minor, Op. 27 No. 2, "Moonlight": III. Presto agitato
DR15 -0.10 dB -20.96 dB 8:12 56-Piano Sonata No. 15 in D Major, Op. 28, "Pastoral": I. Allegro
DR15 -5.94 dB -28.37 dB 8:42 57-Piano Sonata No. 15 in D Major, Op. 28, "Pastoral": II. Andante
DR13 -4.50 dB -22.95 dB 2:27 58-Piano Sonata No. 15 in D Major, Op. 28, "Pastoral": III. Scherzo (Allegro vivace)
DR13 -1.43 dB -20.29 dB 4:17 59-Piano Sonata No. 15 in D Major, Op. 28, "Pastoral": IV. Rondo (Allegro ma non troppo)
DR15 -1.65 dB -20.74 dB 6:25 60-Piano Sonata No. 16 in G Major, Op. 31 No. 1: I. Allegro vivace
DR15 -6.83 dB -27.43 dB 11:20 61-Piano Sonata No. 16 in G Major, Op. 31 No. 1: II. Adagio grazioso
DR14 -2.29 dB -21.45 dB 5:45 62-Piano Sonata No. 16 in G Major, Op. 31 No. 1: III. Rondo (Allegretto - Presto)
DR14 -0.43 dB -20.60 dB 7:41 63-Piano Sonata No. 17 in D Minor, Op. 31 No. 2, "The Tempest": I. Largo - Allegro
DR14 -8.04 dB -28.38 dB 6:17 64-Piano Sonata No. 17 in D Minor, Op. 31 No. 2, "The Tempest": II. Adagio
DR12 -3.01 dB -20.23 dB 5:47 65-Piano Sonata No. 17 in D Minor, Op. 31 No. 2, "The Tempest": III. Allegretto
DR14 -4.52 dB -23.12 dB 7:20 66-Piano Sonata No. 18 in E-Flat Major, Op. 31 No. 3: I. Allegro
DR17 -0.03 dB -22.19 dB 5:14 67-Piano Sonata No. 18 in E-Flat Major, Op. 31 No. 3: II. Scherzo (Allegretto vivace)
DR16 -3.51 dB -24.95 dB 4:11 68-Piano Sonata No. 18 in E-Flat Major, Op. 31 No. 3: III. Menuetto (Moderato e grazioso)
DR15 -0.03 dB -19.64 dB 4:35 69-Piano Sonata No. 18 in E-Flat Major, Op. 31 No. 3: IV. Presto con fuoco
DR13 -6.05 dB -26.69 dB 4:52 70-Piano Sonata No. 19 in G Minor, Op. 49 No. 1: I. Andante
DR15 -0.92 dB -21.35 dB 3:16 71-Piano Sonata No. 19 in G Minor, Op. 49 No. 1: II. Rondo (Allegro)
DR14 -2.34 dB -21.96 dB 4:38 72-Piano Sonata No. 20 in G Major, Op. 49 No. 2: I. Allegro ma non troppo
DR14 -6.37 dB -26.47 dB 3:50 73-Piano Sonata No. 20 in G Major, Op. 49 No. 2: II. Tempo di Menuetto
DR16 -0.03 dB -21.06 dB 10:20 74-Piano Sonata No. 21 in C Major, Op. 53, "Waldstein": I. Allegro con brio
DR14 -9.16 dB -29.28 dB 3:16 75-Piano Sonata No. 21 in C Major, Op. 53, "Waldstein": II. Introduzione (Adagio molto)
DR14 -0.03 dB -19.89 dB 9:27 76-Piano Sonata No. 21 in C Major, Op. 53, "Waldstein": III. Rondo (Allegretto moderato- Prestissimo)
DR16 -1.85 dB -23.86 dB 5:54 77-Piano Sonata No. 22 in F Major, Op. 54: I. In Tempo d'un menuetto
DR13 -1.82 dB -20.43 dB 5:22 78-Piano Sonata No. 22 in F Major, Op. 54: II. Allegretto - Più allegro
DR13 -0.03 dB -18.47 dB 9:10 79-Piano Sonata No. 23 in F Minor, Op. 57, "Appassionata": I. Allegro assai
DR14 -0.18 dB -25.70 dB 5:22 80-Piano Sonata No. 23 in F Minor, Op. 57, "Appassionata": II. Andante con moto
DR14 -0.03 dB -17.86 dB 7:27 81-Piano Sonata No. 23 in F Minor, Op. 57, "Appassionata": III. Allegro ma non troppo - Presto
DR13 -2.79 dB -21.98 dB 6:52 82-Piano Sonata No. 24 in F-Sharp Major, Op. 78, "A Thérèse": I. Adagio cantabile - Allegro ma non troppo
DR13 -1.71 dB -20.24 dB 3:05 83-Piano Sonata No. 24 in F-Sharp Major, Op. 78, "A Thérèse": II. Allegro vivace
DR13 -4.51 dB -21.63 dB 4:19 84-Piano Sonata No. 25 in G Major, Op. 79: I. Presto alla tedesca
DR12 -8.44 dB -26.57 dB 2:36 85-Piano Sonata No. 25 in G Major, Op. 79: II. Andante
DR14 -4.39 dB -22.73 dB 2:00 86-Piano Sonata No. 25 in G Major, Op. 79: III. Vivace
DR16 -1.29 dB -22.92 dB 6:28 87-Piano Sonata No. 26 in E-Flat Major, Op. 81a, "Das Lebewohl": I. Das Lebewohl (Adagio - Allegro)
DR13 -8.65 dB -28.49 dB 3:18 88-Piano Sonata No. 26 in E-Flat Major, Op. 81a, "Das Lebewohl": II. Abwesenheit (Andante espressivo)
DR14 -0.50 dB -19.66 dB 5:50 89-Piano Sonata No. 26 in E-Flat Major, Op. 81a, "Das Lebewohl": III. Das Wiedersehen (Vivacissimamente - Poco andante)
DR15 -0.03 dB -21.76 dB 5:20 90-Piano Sonata No. 27 in E Minor, Op. 90: I. Mit Lebhaftigkeit und durchaus mit Empfindung und Ausdruck
DR14 -1.37 dB -20.94 dB 6:27 91-Piano Sonata No. 27 in E Minor, Op. 90: II. Nicht zu geschwind und sehr singbar vorzutragen
DR17 -1.08 dB -24.29 dB 4:14 92-Piano Sonata No. 28 in A Major, Op. 101: I. Etwas lebhaft und mit der innigsten Empfindung (Allegretto ma non troppo)
DR14 -1.08 dB -20.67 dB 5:57 93-Piano Sonata No. 28 in A Major, Op. 101: II. Lebhaft und marschmässig (Vivace alla marcia)
DR14 -5.62 dB -27.26 dB 2:20 94-Piano Sonata No. 28 in A Major, Op. 101: III. Langsam und sehnsuchtsvoll (Adagio ma non troppo con affetto)
DR15 -0.03 dB -20.13 dB 7:57 95-Piano Sonata No. 28 in A Major, Op. 101: IV. Geschwind, doch nicht zu sehr und mit Entschlossenheit (Allegro)
DR14 -0.03 dB -17.56 dB 10:45 96-Piano Sonata No. 29 in B-Flat Major, Op. 106, "Hammerklavier": I. Allegro
DR15 -0.03 dB -20.60 dB 2:53 97-Piano Sonata No. 29 in B-Flat Major, Op. 106, "Hammerklavier": II. Scherzo (Assai vivace - Presto - Prestissimo)
DR17 -3.41 dB -27.48 dB 14:46 98-Piano Sonata No. 29 in B-Flat Major, Op. 106, "Hammerklavier": III. Adagio sostenuto, appassionato e con molto sentimento
DR15 -0.03 dB -18.92 dB 11:33 99-Piano Sonata No. 29 in B-Flat Major, Op. 106, "Hammerklavier": IV. Introduzione (Largo) - Fuga [Allegro risoluto]
DR14 -3.15 dB -23.41 dB 3:49 100-Piano Sonata No. 30 in E Major, Op. 109: I. Vivace - Adagio espressivo
DR12 -0.86 dB -18.61 dB 2:38 101-Piano Sonata No. 30 in E Major, Op. 109: II. Prestissimo
DR14 -11.52 dB -30.82 dB 2:24 102-Piano Sonata No. 30 in E Major, Op. 109: III. Tema (Gesangvoll mit innigster Empfindung - Andante molto cantabile ed espressivo)
DR12 -6.36 dB -26.74 dB 1:39 103-Piano Sonata No. 30 in E Major, Op. 109: III. Variation 1 - Molto espressivo
DR11 -4.48 dB -24.56 dB 1:35 104-Piano Sonata No. 30 in E Major, Op. 109: III. Variation 2 - Leggiermente
DR12 -3.52 dB -19.62 dB 0:26 105-Piano Sonata No. 30 in E Major, Op. 109: III. Variation 3 - Allegro vivace
DR13 -2.30 dB -22.27 dB 2:06 106-Piano Sonata No. 30 in E Major, Op. 109: III. Variation 4 - Etwas langsamer als das Thema
DR12 -1.79 dB -18.23 dB 0:53 107-Piano Sonata No. 30 in E Major, Op. 109: III. Variation 5 - Allegro ma non troppo
DR12 -4.67 dB -24.09 dB 3:24 108-Piano Sonata No. 30 in E Major, Op. 109: III. Variation 6 - Tempo I del tema. Cantabile
DR13 -3.81 dB -22.68 dB 5:57 109-Piano Sonata No. 31 in A-Flat Major, Op. 110: I. Moderato cantabile, molto espressivo
DR15 -1.67 dB -21.67 dB 2:14 110-Piano Sonata No. 31 in A-Flat Major, Op. 110: II. Scherzo (Allegro molto)
DR14 -0.04 dB -21.66 dB 9:43 111-Piano Sonata No. 31 in A-Flat Major, Op. 110: III. Adagio, ma non troppo - Allegro, ma non troppo
DR15 -0.03 dB -19.65 dB 9:14 112-Piano Sonata No. 32 in C Minor, Op. 111: I. Maestoso - Allegro con brio ed appassionato
DR14 -3.78 dB -23.53 dB 15:29 113-Piano Sonata No. 32 in C Minor, Op. 111: II. Arietta (Adagio molto semplice e cantabile)
––––––––––––––––––––––––––––––––––––––––

Number of tracks: 113
Official DR value: DR14

Samplerate: 96000 Hz
Channels: 2
Bits per sample: 24
Bitrate: 1993 kbps
Codec: FLAC
================================================================================


Thanks to the Original customer.