Tags
Language
Tags

Frank Zappa - Halloween 77 (Live at Palladium, New York City, NY) (2017) [Official Digital Download]

Posted By: SERTiL
Frank Zappa - Halloween 77 (Live at Palladium, New York City, NY) (2017) [Official Digital Download]

Frank Zappa - Halloween 77 (Live at Palladium, New York City, NY) (2017)
FLAC (tracks) 24-bit/44.1 kHz | Time - 15:45:06 | 10.9 GB
Studio Master, Official Digital Download | Artwork: Digital booklet

Halloween was Frank Zappa’s favorite holiday & by 1977 his Halloween shows were legendary. Recorded live at The Palladium in NYC, Zappa performed 6 shows 28-31 October. 4 shows were filmed & resulted in Zappa’s movie “Baby Snakes.” The Halloween 77 box includes all 6 shows in their entirety, mixed in 2016 from original Vault masters, on USB stick in 24-bit WAV audio with 32-page digital booklet, Zappa Halloween mask & costume. The shows rock hard & feature unreleased performances & arrangements.

Tracklist:

Disc 1
1. Introductions (Live at Palladium, New York City, NY, 10/28/1977 - Show 1) (03:28)
2. Peaches En Regalia (Live at Palladium, New York City, NY, 10/28/1977 - Show 1) (02:42)
3. The Torture Never Stops (Live at Palladium, New York City, NY, 10/28/1977 - Show 1) (13:05)
4. Tryin' to Grow a Chin (Live at Palladium, New York City, NY, 10/28/1977 - Show 1) (03:37)
5. City of Tiny Lites (Live at Palladium, New York City, NY, 10/28/1977 - Show 1) (06:04)
6. Pound For a Brown (Live at Palladium, New York City, NY, 10/28/1977 - Show 1) (08:05)
7. Bobby Brown Goes Down (Live at Palladium, New York City, NY, 10/28/1977 - Show 1) (04:33)
8. Conehead (Live at Palladium, New York City, NY, 10/28/1977 - Show 1) (09:19)
9. Flakes (Live at Palladium, New York City, NY, 10/28/1977 - Show 1) (04:03)
10. Big Leg Emma (Live at Palladium, New York City, NY, 10/28/1977 - Show 1) (01:47)
11. Envelopes (Live at Palladium, New York City, NY, 10/28/1977 - Show 1) (02:29)
12. Terry's Solo (Live at Palladium, New York City, NY, 10/28/1977 - Show 1) (04:42)
13. Disco Boy (Live at Palladium, New York City, NY, 10/28/1977 - Show 1) (03:53)
14. Lather (Live at Palladium, New York City, NY, 10/28/1977 - Show 1) (03:36)
15. Wild Love (Live at Palladium, New York City, NY, 10/28/1977 - Show 1) (24:05)
16. T*****s N Beer (Live at Palladium, New York City, NY, 10/28/1977 - Show 1) (07:16)
17. Audience Participation (Live at Palladium, New York City, NY, 10/28/1977 - Show 1) (00:48)
18. The Black Page #2 (Live at Palladium, New York City, NY, 10/28/1977 - Show 1) (03:02)
19. Jones Crusher (Live at Palladium, New York City, NY, 10/28/1977 - Show 1) (02:48)
20. Broken Hearts Are For A*****es (Live at Palladium, New York City, NY, 10/28/1977 - Show 1) (03:52)
21. Punky's Whips (Live at Palladium, New York City, NY, 10/28/1977 - Show 1) (09:43)
22. Encore Audience (Live at Palladium, New York City, NY, 10/28/1977 - Show 1) (01:21)
23. Dinah-Moe Humm (Live at Palladium, New York City, NY, 10/28/1977 - Show 1) (04:55)
24. Camarillo Brillo (Live at Palladium, New York City, NY, 10/28/1977 - Show 1) (03:35)
25. Muffin Man (Live at Palladium, New York City, NY, 10/28/1977 - Show 1) (04:36)

Disc 2
1. Introductions (Live at Palladium, New York City, NY, 10/28/1977 - Show 2) (03:13)
2. Peaches En Regalia (Live at Palladium, New York City, NY, 10/28/1977 - Show 2) (02:42)
3. The Torture Never Stops (Live at Palladium, New York City, NY, 10/28/1977 - Show 2) (12:33)
4. Tryin' to Grow a Chin (Live at Palladium, New York City, NY, 10/28/1977 - Show 2) (03:37)
5. City of Tiny Lites (Live at Palladium, New York City, NY, 10/28/1977 - Show 2) (08:00)
6. Pound For a Brown (Live at Palladium, New York City, NY, 10/28/1977 - Show 2) (09:19)
7. Bobby Brown Goes Down (Live at Palladium, New York City, NY, 10/28/1977 - Show 2) (05:36)
8. Conehead (Live at Palladium, New York City, NY, 10/28/1977 - Show 2) (09:18)
9. Flakes (Live at Palladium, New York City, NY, 10/28/1977 - Show 2) (04:10)
10. Big Leg Emma (Live at Palladium, New York City, NY, 10/28/1977 - Show 2) (01:48)
11. Envelopes (Live at Palladium, New York City, NY, 10/28/1977 - Show 2) (02:33)
12. Terry's Solo (Live at Palladium, New York City, NY, 10/28/1977 - Show 2) (04:17)
13. Disco Boy (Live at Palladium, New York City, NY, 10/28/1977 - Show 2) (03:54)
14. Lather (Live at Palladium, New York City, NY, 10/28/1977 - Show 2) (03:42)
15. Wild Love (Live at Palladium, New York City, NY, 10/28/1977 - Show 2) (26:01)
16. T*****s N Beer (Live at Palladium, New York City, NY, 10/28/1977 - Show 2) (07:50)
17. Audience Participation (Live at Palladium, New York City, NY, 10/28/1977 - Show 2) (02:37)
18. The Black Page #2 (Live at Palladium, New York City, NY, 10/28/1977 - Show 2) (03:14)
19. Jones Crusher (Live at Palladium, New York City, NY, 10/28/1977 - Show 2) (02:58)
20. Broken Hearts Are For A*****es (Live at Palladium, New York City, NY, 10/28/1977 - Show 2) (03:54)
21. Punky's Whips (Live at Palladium, New York City, NY, 10/28/1977 - Show 2) (09:51)
22. Encore Audience (Live at Palladium, New York City, NY, 10/28/1977 - Show 2) (02:13)
23. Dinah-Moe Humm (Live at Palladium, New York City, NY, 10/28/1977 - Show 2) (04:01)
24. Camarillo Brillo (Live at Palladium, New York City, NY, 10/28/1977 - Show 2) (03:36)
25. Muffin Man (Live at Palladium, New York City, NY, 10/28/1977 - Show 2) (06:20)

Disc 3
1. Introductions (Live at Palladium, New York City, NY, 10/29/1977 - Show 1) (04:06)
2. Peaches En Regalia (Live at Palladium, New York City, NY, 10/29/1977 - Show 1) (02:42)
3. The Torture Never Stops (Live at Palladium, New York City, NY, 10/29/1977 - Show 1) (12:59)
4. Tryin' to Grow a Chin (Live at Palladium, New York City, NY, 10/29/1977 - Show 1) (03:34)
5. City of Tiny Lites (Live at Palladium, New York City, NY, 10/29/1977 - Show 1) (07:15)
6. Pound For a Brown (Live at Palladium, New York City, NY, 10/29/1977 - Show 1) (08:26)
7. Bobby Brown Goes Down (Live at Palladium, New York City, NY, 10/29/1977 - Show 1) (06:06)
8. Conehead (Live at Palladium, New York City, NY, 10/29/1977 - Show 1) (05:50)
9. Flakes (Live at Palladium, New York City, NY, 10/29/1977 - Show 1) (03:53)
10. Big Leg Emma (Live at Palladium, New York City, NY, 10/29/1977 - Show 1) (01:52)
11. Envelopes (Live at Palladium, New York City, NY, 10/29/1977 - Show 1) (02:42)
12. Terry's Solo (Live at Palladium, New York City, NY, 10/29/1977 - Show 1) (03:51)
13. Disco Boy (Live at Palladium, New York City, NY, 10/29/1977 - Show 1) (03:57)
14. Lather (Live at Palladium, New York City, NY, 10/29/1977 - Show 1) (03:40)
15. Wild Love (Live at Palladium, New York City, NY, 10/29/1977 - Show 1) (22:51)
16. T*****s N Beer (Live at Palladium, New York City, NY, 10/29/1977 - Show 1) (06:01)
17. Audience Participation (Live at Palladium, New York City, NY, 10/29/1977 - Show 1) (02:42)
18. The Black Page #2 (Live at Palladium, New York City, NY, 10/29/1977 - Show 1) (03:05)
19. Jones Crusher (Live at Palladium, New York City, NY, 10/29/1977 - Show 1) (02:53)
20. Broken Hearts Are For A*****es (Live at Palladium, New York City, NY, 10/29/1977 - Show 1) (03:50)
21. Punky's Whips (Live at Palladium, New York City, NY, 10/29/1977 - Show 1) (09:18)
22. Encore Audience (Live at Palladium, New York City, NY, 10/29/1977 - Show 1) (01:46)
23. Dinah-Moe Humm (Live at Palladium, New York City, NY, 10/29/1977 - Show 1) (05:12)
24. Camarillo Brillo (Live at Palladium, New York City, NY, 10/29/1977 - Show 1) (03:29)
25. Muffin Man (Live at Palladium, New York City, NY, 10/29/1977 - Show 1) (05:09)

Disc 4
1. Introductions (Live at Palladium, New York City, NY, 10/29/1977 - Show 2) (04:21)
2. Peaches En Regalia (Live at Palladium, New York City, NY, 10/29/1977 - Show 2) (02:42)
3. The Torture Never Stops (Live at Palladium, New York City, NY, 10/29/1977 - Show 2) (11:30)
4. Tryin' to Grow a Chin (Live at Palladium, New York City, NY, 10/29/1977 - Show 2) (03:36)
5. City of Tiny Lites (Live at Palladium, New York City, NY, 10/29/1977 - Show 2) (07:01)
6. Pound For a Brown (Live at Palladium, New York City, NY, 10/29/1977 - Show 2) (09:05)
7. Bobby Brown Goes Down (Live at Palladium, New York City, NY, 10/29/1977 - Show 2) (09:12)
8. Conehead (Live at Palladium, New York City, NY, 10/29/1977 - Show 2) (06:29)
9. Flakes (Live at Palladium, New York City, NY, 10/29/1977 - Show 2) (03:28)
10. Big Leg Emma (Live at Palladium, New York City, NY, 10/29/1977 - Show 2) (01:49)
11. Envelopes (Live at Palladium, New York City, NY, 10/29/1977 - Show 2) (02:52)
12. Terry's Solo (Live at Palladium, New York City, NY, 10/29/1977 - Show 2) (04:07)
13. Disco Boy (Live at Palladium, New York City, NY, 10/29/1977 - Show 2) (03:54)
14. Lather (Live at Palladium, New York City, NY, 10/29/1977 - Show 2) (03:56)
15. Wild Love (Live at Palladium, New York City, NY, 10/29/1977 - Show 2) (27:33)
16. T*****s N Beer (Live at Palladium, New York City, NY, 10/29/1977 - Show 2) (08:12)
17. Audience Participation (Live at Palladium, New York City, NY, 10/29/1977 - Show 2) (05:02)
18. The Black Page #2 (Live at Palladium, New York City, NY, 10/29/1977 - Show 2) (02:57)
19. Jones Crusher (Live at Palladium, New York City, NY, 10/29/1977 - Show 2) (02:49)
20. Broken Hearts Are For A*****es (Live at Palladium, New York City, NY, 10/29/1977 - Show 2) (03:48)
21. Punky's Whips (Live at Palladium, New York City, NY, 10/29/1977 - Show 2) (09:36)
22. Encore Audience (Live at Palladium, New York City, NY, 10/29/1977 - Show 2) (02:23)
23. Dinah-Moe Humm (Live at Palladium, New York City, NY, 10/29/1977 - Show 2) (06:19)
24. Camarillo Brillo (Live at Palladium, New York City, NY, 10/29/1977 - Show 2) (03:30)
25. Muffin Man (Live at Palladium, New York City, NY, 10/29/1977 - Show 2) (06:02)

Disc 5
1. Show Start (Live at Palladium, New York City, NY, 10/30/1977) (01:40)
2. Stink-Foot (Live at Palladium, New York City, NY, 10/30/1977) (07:45)
3. The Poodle Lecture (Live at Palladium, New York City, NY, 10/30/1977) (05:10)
4. Dirty Love (Live at Palladium, New York City, NY, 10/30/1977) (02:32)
5. Peaches En Regalia (Live at Palladium, New York City, NY, 10/30/1977) (02:40)
6. The Torture Never Stops (Live at Palladium, New York City, NY, 10/30/1977) (12:53)
7. Tryin' to Grow a Chin (Live at Palladium, New York City, NY, 10/30/1977) (03:32)
8. City of Tiny Lites (Live at Palladium, New York City, NY, 10/30/1977) (07:36)
9. Pound For a Brown (Live at Palladium, New York City, NY, 10/30/1977) (10:03)
10. I Have Been In You (Live at Palladium, New York City, NY, 10/30/1977) (08:35)
11. Dancin' Fool (Live at Palladium, New York City, NY, 10/30/1977) (04:50)
12. Jewish Princess (Live at Palladium, New York City, NY, 10/30/1977) (04:41)
13. King Kong (Live at Palladium, New York City, NY, 10/30/1977) (08:45)
14. Terry's Solo (Live at Palladium, New York City, NY, 10/30/1977) (05:07)
15. Disco Boy (Live at Palladium, New York City, NY, 10/30/1977) (04:01)
16. Envelopes (Live at Palladium, New York City, NY, 10/30/1977) (02:19)
17. A Halloween Treat With Thomas Nordegg (Live at Palladium, New York City, NY, 10/30/1977) (06:17)
18. Lather (Live at Palladium, New York City, NY, 10/30/1977) (03:47)
19. Wild Love (Live at Palladium, New York City, NY, 10/30/1977) (25:19)
20. T*****s N Beer (Live at Palladium, New York City, NY, 10/30/1977) (07:01)
21. Audience Participation (Live at Palladium, New York City, NY, 10/30/1977) (08:28)
22. The Black Page #2 (Live at Palladium, New York City, NY, 10/30/1977) (02:59)
23. Jones Crusher (Live at Palladium, New York City, NY, 10/30/1977) (02:53)
24. Broken Hearts Are For A*****es (Live at Palladium, New York City, NY, 10/30/1977) (03:52)
25. Punky's Whips (Live at Palladium, New York City, NY, 10/30/1977) (12:36)
26. Encore Rap (Live at Palladium, New York City, NY, 10/30/1977) (01:11)
27. Dinah-Moe Humm (Live at Palladium, New York City, NY, 10/30/1977) (06:06)
28. Camarillo Brillo (Live at Palladium, New York City, NY, 10/30/1977) (03:27)
29. Muffin Man (Live at Palladium, New York City, NY, 10/30/1977) (05:18)
30. San Ber'dino (Live at Palladium, New York City, NY, 10/30/1977) (06:20)

Disc 6
1. Show Start (Live at Palladium, New York City, NY, 10/31/1977) (03:11)
2. Peaches En Regalia (Live at Palladium, New York City, NY, 10/31/1977) (02:42)
3. The Torture Never Stops (Live at Palladium, New York City, NY, 10/31/1977) (13:34)
4. Tryin' to Grow a Chin (Live at Palladium, New York City, NY, 10/31/1977) (03:35)
5. City of Tiny Lites (Live at Palladium, New York City, NY, 10/31/1977) (08:17)
6. Pound For a Brown (Live at Palladium, New York City, NY, 10/31/1977) (13:40)
7. The Demise of the Imported Rubber Goods Mask (Live at Palladium, New York City, NY, 10/31/1977) (08:33)
8. Bobby Brown Goes Down (Live at Palladium, New York City, NY, 10/31/1977) (03:49)
9. Conehead (Live at Palladium, New York City, NY, 10/31/1977) (08:21)
10. Flakes (Live at Palladium, New York City, NY, 10/31/1977) (03:04)
11. Big Leg Emma (Live at Palladium, New York City, NY, 10/31/1977) (01:58)
12. Envelopes (Live at Palladium, New York City, NY, 10/31/1977) (02:25)
13. Terry's Halloween Solo (Live at Palladium, New York City, NY, 10/31/1977) (04:38)
14. Disco Boy (Live at Palladium, New York City, NY, 10/31/1977) (03:55)
15. Lather (Live at Palladium, New York City, NY, 10/31/1977) (03:58)
16. Wild Love (Live at Palladium, New York City, NY, 10/31/1977) (30:11)
17. T*****s N Beer (Live at Palladium, New York City, NY, 10/31/1977) (07:24)
18. Audience Participation (Live at Palladium, New York City, NY, 10/31/1977) (07:04)
19. The Black Page #2 (Live at Palladium, New York City, NY, 10/31/1977) (02:55)
20. Jones Crusher (Live at Palladium, New York City, NY, 10/31/1977) (02:58)
21. Broken Hearts Are For A*****es (Live at Palladium, New York City, NY, 10/31/1977) (03:52)
22. Punky's Whips (Live at Palladium, New York City, NY, 10/31/1977) (11:23)
23. Encore Audience (Live at Palladium, New York City, NY, 10/31/1977) (02:07)
24. Dinah-Moe Humm (Live at Palladium, New York City, NY, 10/31/1977) (06:41)
25. Camarillo Brillo (Live at Palladium, New York City, NY, 10/31/1977) (03:24)
26. Muffin Man (Live at Palladium, New York City, NY, 10/31/1977) (05:21)
27. San Ber'dino (Live at Palladium, New York City, NY, 10/31/1977) (05:01)
28. Black Napkins (Live at Palladium, New York City, NY, 10/31/1977) (09:19)

foobar2000 1.3.7 / Dynamic Range Meter 1.1.1
log date: 2017-10-23 13:17:43

––––––––––––––––––––––––––––––––––––––––
Analyzed: Frank Zappa / Halloween 77 (Live At The Palladium, NYC)
––––––––––––––––––––––––––––––––––––––––

DR Peak RMS Duration Track
––––––––––––––––––––––––––––––––––––––––
DR12 0.00 dB -15.33 dB 3:28 01-Introductions (Live At The Palladium, NYC / 10-28-77 / Show 1)
DR9 0.00 dB -10.39 dB 2:42 02-Peaches En Regalia (Live At The Palladium, NYC / 10-28-77 / Show 1)
DR10 0.00 dB -12.32 dB 13:06 03-The Torture Never Stops (Live At The Palladium, NYC / 10-28-77 / Show 1)
DR9 0.00 dB -10.29 dB 3:38 04-Tryin’ To Grow A Chin (Live At The Palladium, NYC / 10-28-77 / Show 1)
DR10 0.00 dB -11.80 dB 6:04 05-City Of Tiny Lites (Live At The Palladium, NYC / 10-28-77 / Show 1)
DR11 0.00 dB -12.91 dB 8:05 06-Pound For A Brown (Live At The Palladium, NYC / 10-28-77 / Show 1)
DR12 0.00 dB -13.93 dB 4:34 07-Bobby Brown Goes Down (Live At The Palladium, NYC / 10-28-77 / Show 1)
DR12 0.00 dB -13.22 dB 9:19 08-Conehead (Live At The Palladium, NYC / 10-28-77 / Show 1)
DR11 0.00 dB -13.49 dB 4:04 09-Flakes (Live At The Palladium, NYC / 10-28-77 / Show 1)
DR10 0.00 dB -11.25 dB 1:47 10-Big Leg Emma (Live At The Palladium, NYC / 10-28-77 / Show 1)
DR12 0.00 dB -14.77 dB 2:29 11-Envelopes (Live At The Palladium, NYC / 10-28-77 / Show 1)
DR13 0.00 dB -15.68 dB 4:42 12-Terry's Solo (Live At The Palladium, NYC / 10-28-77 / Show 1)
DR10 0.00 dB -11.28 dB 3:53 13-Disco Boy (Live At The Palladium, NYC / 10-28-77 / Show 1)
DR12 0.00 dB -13.59 dB 3:36 14-Lather (Live At The Palladium, NYC / 10-28-77 / Show 1)
DR10 0.00 dB -12.25 dB 24:05 15-Wild Love (Live At The Palladium, NYC / 10-28-77 / Show 1)
DR11 0.00 dB -12.84 dB 7:16 16-Titties N Beer (Live At The Palladium, NYC / 10-28-77 / Show 1)
DR12 0.00 dB -13.16 dB 0:49 17-Audience Participation (Live At The Palladium, NYC / 10-28-77 / Show 1)
DR12 0.00 dB -12.57 dB 3:02 18-The Black Page #2 (Live At The Palladium, NYC / 10-28-77 / Show 1)
DR10 0.00 dB -11.96 dB 2:49 19-Jones Crusher (Live At The Palladium, NYC / 10-28-77 / Show 1)
DR11 0.00 dB -12.63 dB 3:53 20-Broken Hearts Are For Assholes (Live At The Palladium, NYC / 10-28-77 / Show 1)
DR10 0.00 dB -11.73 dB 9:43 21-Punky’s Whips (Live At The Palladium, NYC / 10-28-77 / Show 1)
DR15 -2.07 dB -23.27 dB 1:22 22-Encore Audience (Live At The Palladium, NYC / 10-28-77 / Show 1)
DR11 0.00 dB -12.17 dB 4:55 23-Dinah-Moe Humm (Live At The Palladium, NYC / 10-28-77 / Show 1)
DR11 0.00 dB -11.88 dB 3:35 24-Camarillo Brillo (Live At The Palladium, NYC / 10-28-77 / Show 1)
DR10 0.00 dB -12.03 dB 4:37 25-Muffin Man (Live At The Palladium, NYC / 10-28-77 / Show 1)
––––––––––––––––––––––––––––––––––––––––

Number of tracks: 25
Official DR value: DR11

Samplerate: 44100 Hz
Channels: 2
Bits per sample: 24
Bitrate: 1630 kbps
Codec: FLAC
================================================================================

foobar2000 1.3.7 / Dynamic Range Meter 1.1.1
log date: 2017-10-23 13:18:21

––––––––––––––––––––––––––––––––––––––––
Analyzed: Frank Zappa / Halloween 77 (Live At The Palladium, NYC)
––––––––––––––––––––––––––––––––––––––––

DR Peak RMS Duration Track
––––––––––––––––––––––––––––––––––––––––
DR11 0.00 dB -13.26 dB 3:13 01-Introductions (Live At The Palladium, NYC / 10-28-77 / Show 2)
DR8 0.00 dB -9.29 dB 2:43 02-Peaches En Regalia (Live At The Palladium, NYC / 10-28-77 / Show 2)
DR9 0.00 dB -10.32 dB 12:33 03-The Torture Never Stops (Live At The Palladium, NYC / 10-28-77 / Show 2)
DR8 0.00 dB -8.62 dB 3:38 04-Tryin’ To Grow A Chin (Live At The Palladium, NYC / 10-28-77 / Show 2)
DR8 0.00 dB -9.70 dB 8:00 05-City Of Tiny Lites (Live At The Palladium, NYC / 10-28-77 / Show 2)
DR10 0.00 dB -11.35 dB 9:19 06-Pound For A Brown (Live At The Palladium, NYC / 10-28-77 / Show 2)
DR10 0.00 dB -11.68 dB 5:37 07-Bobby Brown Goes Down (Live At The Palladium, NYC / 10-28-77 / Show 2)
DR9 0.00 dB -10.13 dB 9:19 08-Conehead (Live At The Palladium, NYC / 10-28-77 / Show 2)
DR9 0.00 dB -11.08 dB 4:11 09-Flakes (Live At The Palladium, NYC / 10-28-77 / Show 2)
DR8 0.00 dB -8.95 dB 1:49 10-Big Leg Emma (Live At The Palladium, NYC / 10-28-77 / Show 2)
DR10 0.00 dB -13.08 dB 2:33 11-Envelopes (Live At The Palladium, NYC / 10-28-77 / Show 2)
DR10 0.00 dB -12.38 dB 4:18 12-Terry's Solo (Live At The Palladium, NYC / 10-28-77 / Show 2)
DR8 0.00 dB -8.77 dB 3:54 13-Disco Boy (Live At The Palladium, NYC / 10-28-77 / Show 2)
DR10 0.00 dB -11.51 dB 3:42 14-Lather (Live At The Palladium, NYC / 10-28-77 / Show 2)
DR9 0.00 dB -10.56 dB 26:01 15-Wild Love (Live At The Palladium, NYC / 10-28-77 / Show 2)
DR9 0.00 dB -11.00 dB 7:50 16-Titties N Beer (Live At The Palladium, NYC / 10-28-77 / Show 2)
DR10 0.00 dB -12.05 dB 2:38 17-Audience Participation (Live At The Palladium, NYC / 10-28-77 / Show 2)
DR9 0.00 dB -10.44 dB 3:14 18-The Black Page #2 (Live At The Palladium, NYC / 10-28-77 / Show 2)
DR8 0.00 dB -8.93 dB 2:58 19-Jones Crusher (Live At The Palladium, NYC / 10-28-77 / Show 2)
DR8 0.00 dB -9.88 dB 3:55 20-Broken Hearts Are For Assholes (Live At The Palladium, NYC / 10-28-77 / Show 2)
DR8 0.00 dB -9.44 dB 9:52 21-Punky’s Whips (Live At The Palladium, NYC / 10-28-77 / Show 2)
DR13 0.00 dB -17.14 dB 2:13 22-Encore Audience (Live At The Palladium, NYC / 10-28-77 / Show 2)
DR9 0.00 dB -10.13 dB 4:02 23-Dinah-Moe Humm (Live At The Palladium, NYC / 10-28-77 / Show 2)
DR9 0.00 dB -9.81 dB 3:37 24-Camarillo Brillo (Live At The Palladium, NYC / 10-28-77 / Show 2)
DR8 0.00 dB -9.88 dB 6:21 25-Muffin Man (Live At The Palladium, NYC / 10-28-77 / Show 2)
––––––––––––––––––––––––––––––––––––––––

Number of tracks: 25
Official DR value: DR9

Samplerate: 44100 Hz
Channels: 2
Bits per sample: 24
Bitrate: 1697 kbps
Codec: FLAC
================================================================================

foobar2000 1.3.7 / Dynamic Range Meter 1.1.1
log date: 2017-10-23 13:19:45

––––––––––––––––––––––––––––––––––––––––
Analyzed: Frank Zappa / Halloween 77 (Live At The Palladium, NYC)
––––––––––––––––––––––––––––––––––––––––

DR Peak RMS Duration Track
––––––––––––––––––––––––––––––––––––––––
DR10 0.00 dB -12.52 dB 4:07 01-Introductions (Live At The Palladium, NYC / 10-29-77 / Show 1)
DR8 0.00 dB -9.46 dB 2:42 02-Peaches En Regalia (Live At The Palladium, NYC / 10-29-77 / Show 1)
DR9 0.00 dB -10.35 dB 13:00 03-The Torture Never Stops (Live At The Palladium, NYC / 10-29-77 / Show 1)
DR8 0.00 dB -8.77 dB 3:34 04-Tryin’ To Grow A Chin (Live At The Palladium, NYC / 10-29-77 / Show 1)
DR9 0.00 dB -10.49 dB 7:16 05-City Of Tiny Lites (Live At The Palladium, NYC / 10-29-77 / Show 1)
DR11 0.00 dB -12.73 dB 8:26 06-Pound For A Brown (Live At The Palladium, NYC / 10-29-77 / Show 1)
DR10 0.00 dB -12.77 dB 6:07 07-Bobby Brown Goes Down (Live At The Palladium, NYC / 10-29-77 / Show 1)
DR9 0.00 dB -11.21 dB 5:50 08-Conehead (Live At The Palladium, NYC / 10-29-77 / Show 1)
DR9 0.00 dB -11.82 dB 3:53 09-Flakes (Live At The Palladium, NYC / 10-29-77 / Show 1)
DR8 0.00 dB -9.11 dB 1:52 10-Big Leg Emma (Live At The Palladium, NYC / 10-29-77 / Show 1)
DR11 0.00 dB -13.44 dB 2:42 11-Envelopes (Live At The Palladium, NYC / 10-29-77 / Show 1)
DR10 0.00 dB -11.71 dB 3:51 12-Terry's Solo (Live At The Palladium, NYC / 10-29-77 / Show 1)
DR8 0.00 dB -9.31 dB 3:57 13-Disco Boy (Live At The Palladium, NYC / 10-29-77 / Show 1)
DR10 0.00 dB -11.26 dB 3:41 14-Lather (Live At The Palladium, NYC / 10-29-77 / Show 1)
DR9 0.00 dB -11.20 dB 22:51 15-Wild Love (Live At The Palladium, NYC / 10-29-77 / Show 1)
DR9 0.00 dB -10.85 dB 6:02 16-Titties N Beer (Live At The Palladium, NYC / 10-29-77 / Show 1)
DR11 0.00 dB -13.86 dB 2:42 17-Audience Participation (Live At The Palladium, NYC / 10-29-77 / Show 1)
DR11 0.00 dB -12.04 dB 3:05 18-The Black Page #2 (Live At The Palladium, NYC / 10-29-77 / Show 1)
DR9 0.00 dB -9.77 dB 2:53 19-Jones Crusher (Live At The Palladium, NYC / 10-29-77 / Show 1)
DR9 0.00 dB -10.76 dB 3:50 20-Broken Hearts Are For Assholes (Live At The Palladium, NYC / 10-29-77 / Show 1)
DR8 0.00 dB -9.97 dB 9:18 21-Punky’s Whips (Live At The Palladium, NYC / 10-29-77 / Show 1)
DR13 0.00 dB -15.28 dB 1:47 22-Encore Audience (Live At The Palladium, NYC / 10-29-77 / Show 1)
DR9 0.00 dB -9.84 dB 5:12 23-Dinah-Moe Humm (Live At The Palladium, NYC / 10-29-77 / Show 1)
DR9 0.00 dB -9.90 dB 3:29 24-Camarillo Brillo (Live At The Palladium, NYC / 10-29-77 / Show 1)
DR8 0.00 dB -9.62 dB 5:10 25-Muffin Man (Live At The Palladium, NYC / 10-29-77 / Show 1)
––––––––––––––––––––––––––––––––––––––––

Number of tracks: 25
Official DR value: DR9

Samplerate: 44100 Hz
Channels: 2
Bits per sample: 24
Bitrate: 1684 kbps
Codec: FLAC
================================================================================

foobar2000 1.3.7 / Dynamic Range Meter 1.1.1
log date: 2017-10-23 13:22:00

––––––––––––––––––––––––––––––––––––––––
Analyzed: Frank Zappa / Halloween 77 (Live At The Palladium, NYC)
––––––––––––––––––––––––––––––––––––––––

DR Peak RMS Duration Track
––––––––––––––––––––––––––––––––––––––––
DR9 0.00 dB -12.53 dB 4:21 01-Introductions (Live At The Palladium, NYC / 10-29-77 / Show 2)
DR8 0.00 dB -9.18 dB 2:42 02-Peaches En Regalia (Live At The Palladium, NYC / 10-29-77 / Show 2)
DR9 0.00 dB -10.82 dB 11:31 03-The Torture Never Stops (Live At The Palladium, NYC / 10-29-77 / Show 2)
DR8 0.00 dB -9.10 dB 3:36 04-Tryin’ To Grow A Chin (Live At The Palladium, NYC / 10-29-77 / Show 2)
DR8 0.00 dB -9.83 dB 7:02 05-City Of Tiny Lites (Live At The Palladium, NYC / 10-29-77 / Show 2)
DR10 0.00 dB -11.86 dB 9:06 06-Pound For A Brown (Live At The Palladium, NYC / 10-29-77 / Show 2)
DR10 0.00 dB -12.25 dB 9:13 07-Bobby Brown Goes Down (Live At The Palladium, NYC / 10-29-77 / Show 2)
DR9 0.00 dB -10.48 dB 6:29 08-Conehead (Live At The Palladium, NYC / 10-29-77 / Show 2)
DR9 0.00 dB -11.07 dB 3:29 09-Flakes (Live At The Palladium, NYC / 10-29-77 / Show 2)
DR8 0.00 dB -9.07 dB 1:49 10-Big Leg Emma (Live At The Palladium, NYC / 10-29-77 / Show 2)
DR10 0.00 dB -12.65 dB 2:52 11-Envelopes (Live At The Palladium, NYC / 10-29-77 / Show 2)
DR10 0.00 dB -12.30 dB 4:08 12-Terry's Solo (Live At The Palladium, NYC / 10-29-77 / Show 2)
DR9 0.00 dB -9.39 dB 3:54 13-Disco Boy (Live At The Palladium, NYC / 10-29-77 / Show 2)
DR9 0.00 dB -11.16 dB 3:57 14-Lather (Live At The Palladium, NYC / 10-29-77 / Show 2)
DR9 0.00 dB -10.75 dB 27:34 15-Wild Love (Live At The Palladium, NYC / 10-29-77 / Show 2)
DR9 0.00 dB -11.31 dB 8:12 16-Titties N Beer (Live At The Palladium, NYC / 10-29-77 / Show 2)
DR10 0.00 dB -12.00 dB 5:03 17-Audience Participation (Live At The Palladium, NYC / 10-29-77 / Show 2)
DR11 0.00 dB -12.23 dB 2:58 18-The Black Page #2 (Live At The Palladium, NYC / 10-29-77 / Show 2)
DR9 0.00 dB -10.31 dB 2:50 19-Jones Crusher (Live At The Palladium, NYC / 10-29-77 / Show 2)
DR9 0.00 dB -11.34 dB 3:49 20-Broken Hearts Are For Assholes (Live At The Palladium, NYC / 10-29-77 / Show 2)
DR8 0.00 dB -10.49 dB 9:37 21-Punky’s Whips (Live At The Palladium, NYC / 10-29-77 / Show 2)
DR13 0.00 dB -17.42 dB 2:24 22-Encore Audience (Live At The Palladium, NYC / 10-29-77 / Show 2)
DR9 0.00 dB -10.20 dB 6:20 23-Dinah-Moe Humm (Live At The Palladium, NYC / 10-29-77 / Show 2)
DR9 0.00 dB -10.20 dB 3:31 24-Camarillo Brillo (Live At The Palladium, NYC / 10-29-77 / Show 2)
DR8 0.00 dB -10.55 dB 6:03 25-Muffin Man (Live At The Palladium, NYC / 10-29-77 / Show 2)
––––––––––––––––––––––––––––––––––––––––

Number of tracks: 25
Official DR value: DR9

Samplerate: 44100 Hz
Channels: 2
Bits per sample: 24
Bitrate: 1638 kbps
Codec: FLAC
================================================================================

foobar2000 1.3.7 / Dynamic Range Meter 1.1.1
log date: 2017-10-23 13:25:21

––––––––––––––––––––––––––––––––––––––––
Analyzed: Frank Zappa / Halloween 77 (Live At The Palladium, NYC)
––––––––––––––––––––––––––––––––––––––––

DR Peak RMS Duration Track
––––––––––––––––––––––––––––––––––––––––
DR14 -0.44 dB -24.41 dB 1:40 01-Show Start (Live At The Palladium, NYC / 10-30-77)
DR9 0.00 dB -10.43 dB 7:45 02-Stink-Foot (Live At The Palladium, NYC / 10-30-77)
DR10 0.00 dB -11.08 dB 5:11 03-The Poodle Lecture (Live At The Palladium, NYC / 10-30-77)
DR8 0.00 dB -9.01 dB 2:32 04-Dirty Love (Live At The Palladium, NYC / 10-30-77)
DR8 0.00 dB -9.26 dB 2:41 05-Peaches En Regalia (Live At The Palladium, NYC / 10-30-77)
DR8 0.00 dB -10.04 dB 12:53 06-The Torture Never Stops (Live At The Palladium, NYC / 10-30-77)
DR8 0.00 dB -8.47 dB 3:33 07-Tryin’ To Grow A Chin (Live At The Palladium, NYC / 10-30-77)
DR8 0.00 dB -9.39 dB 7:37 08-City Of Tiny Lites (Live At The Palladium, NYC / 10-30-77)
DR9 0.00 dB -11.45 dB 10:04 09-Pound For A Brown (Live At The Palladium, NYC / 10-30-77)
DR10 0.00 dB -11.51 dB 8:35 10-I Have Been In You (Live At The Palladium, NYC / 10-30-77)
DR8 0.00 dB -10.42 dB 4:50 11-Dancin' Fool ((World Premiere) / Live At The Palladium, NYC / 10-30-77)
DR9 0.00 dB -10.93 dB 4:42 12-Jewish Princess ((Prototype) / Live At The Palladium, NYC / 10-30-77)
DR10 0.00 dB -13.67 dB 8:45 13-King Kong (Live At The Palladium, NYC / 10-30-77 / Extended Edit)
DR10 0.00 dB -12.41 dB 5:08 14-Terry's Solo (Live At The Palladium, NYC / 10-30-77)
DR8 0.00 dB -8.94 dB 4:01 15-Disco Boy (Live At The Palladium, NYC / 10-30-77)
DR11 0.00 dB -13.56 dB 2:20 16-Envelopes (Live At The Palladium, NYC / 10-30-77)
DR12 0.00 dB -15.77 dB 6:17 17-A Halloween Treat With Thomas Nordegg (Live At The Palladium, NYC / 10-30-77)
DR10 0.00 dB -11.79 dB 3:47 18-Lather (Live At The Palladium, NYC / 10-30-77)
DR9 0.00 dB -10.66 dB 25:20 19-Wild Love (Live At The Palladium, NYC / 10-30-77)
DR9 0.00 dB -11.12 dB 7:02 20-Titties N Beer (Live At The Palladium, NYC / 10-30-77)
DR11 0.00 dB -13.25 dB 8:28 21-Audience Participation (Live At The Palladium, NYC / 10-30-77 / Extended Edit)
DR10 0.00 dB -11.28 dB 3:00 22-The Black Page #2 (Live At The Palladium, NYC / 10-30-77)
DR8 0.00 dB -9.92 dB 2:53 23-Jones Crusher (Live At The Palladium, NYC / 10-30-77)
DR9 0.00 dB -10.53 dB 3:52 24-Broken Hearts Are For Assholes (Live At The Palladium, NYC / 10-30-77)
DR8 0.00 dB -10.01 dB 12:36 25-Punky’s Whips (Live At The Palladium, NYC / 10-30-77)
DR11 0.00 dB -15.11 dB 1:11 26-Encore Rap (Live At The Palladium, NYC / 10-30-77)
DR9 0.00 dB -10.45 dB 6:06 27-Dinah-Moe Humm (Live At The Palladium, NYC / 10-30-77)
DR9 0.00 dB -10.32 dB 3:27 28-Camarillo Brillo (Live At The Palladium, NYC / 10-30-77)
DR9 0.00 dB -9.84 dB 5:18 29-Muffin Man (Live At The Palladium, NYC / 10-30-77)
DR9 0.00 dB -10.02 dB 6:20 30-San Ber’dino (Live At The Palladium, NYC / 10-30-77)
––––––––––––––––––––––––––––––––––––––––

Number of tracks: 30
Official DR value: DR9

Samplerate: 44100 Hz
Channels: 2
Bits per sample: 24
Bitrate: 1690 kbps
Codec: FLAC
================================================================================

foobar2000 1.3.7 / Dynamic Range Meter 1.1.1
log date: 2017-10-23 13:28:32

––––––––––––––––––––––––––––––––––––––––
Analyzed: Frank Zappa / Halloween 77 (Live At The Palladium, NYC)
––––––––––––––––––––––––––––––––––––––––

DR Peak RMS Duration Track
––––––––––––––––––––––––––––––––––––––––
DR11 0.00 dB -13.39 dB 3:12 01-Show Start (Live At The Palladium, NYC / 10-31-77)
DR8 0.00 dB -9.49 dB 2:43 02-Peaches En Regalia (Live At The Palladium, NYC / 10-31-77)
DR9 0.00 dB -9.98 dB 13:34 03-The Torture Never Stops (Live At The Palladium, NYC / 10-31-77)
DR8 0.00 dB -8.60 dB 3:35 04-Tryin’ To Grow A Chin (Live At The Palladium, NYC / 10-31-77)
DR8 0.00 dB -9.59 dB 8:17 05-City Of Tiny Lites (Live At The Palladium, NYC / 10-31-77)
DR10 0.00 dB -12.32 dB 13:40 06-Pound For A Brown (Live At The Palladium, NYC / 10-31-77)
DR9 0.00 dB -12.20 dB 8:33 07-The Demise Of The Imported Rubber Goods Mask (Live At The Palladium, NYC / 10-31-77)
DR10 0.00 dB -11.81 dB 3:50 08-Bobby Brown Goes Down (Live At The Palladium, NYC / 10-31-77)
DR10 0.00 dB -10.90 dB 8:22 09-Conehead (Live At The Palladium, NYC / 10-31-77)
DR8 0.00 dB -10.23 dB 3:04 10-Flakes (Live At The Palladium, NYC / 10-31-77)
DR8 0.00 dB -9.04 dB 1:58 11-Big Leg Emma (Live At The Palladium, NYC / 10-31-77)
DR11 0.00 dB -13.90 dB 2:26 12-Envelopes (Live At The Palladium, NYC / 10-31-77)
DR10 0.00 dB -13.30 dB 4:38 13-Terry's Halloween Solo (Live At The Palladium, NYC / 10-31-77)
DR8 0.00 dB -8.51 dB 3:55 14-Disco Boy (Live At The Palladium, NYC / 10-31-77)
DR9 0.00 dB -11.34 dB 3:59 15-Lather (Live At The Palladium, NYC / 10-31-77)
DR8 0.00 dB -10.05 dB 30:12 16-Wild Love (Live At The Palladium, NYC / 10-31-77)
DR9 0.00 dB -11.02 dB 7:24 17-Titties N Beer (Live At The Palladium, NYC / 10-31-77)
DR9 0.00 dB -11.49 dB 7:05 18-Audience Participation (Live At The Palladium, NYC / 10-31-77)
DR9 0.00 dB -10.24 dB 2:56 19-The Black Page #2 (Live At The Palladium, NYC / 10-31-77)
DR8 0.00 dB -9.76 dB 2:59 20-Jones Crusher (Live At The Palladium, NYC / 10-31-77)
DR8 0.00 dB -10.15 dB 3:53 21-Broken Hearts Are For Assholes (Live At The Palladium, NYC / 10-31-77)
DR8 0.00 dB -9.97 dB 11:23 22-Punky’s Whips (Live At The Palladium, NYC / 10-31-77)
DR12 0.00 dB -15.41 dB 2:08 23-Encore Audience (Live At The Palladium, NYC / 10-31-77)
DR9 0.00 dB -9.66 dB 6:41 24-Dinah-Moe Humm (Live At The Palladium, NYC / 10-31-77)
DR8 0.00 dB -9.07 dB 3:25 25-Camarillo Brillo (Live At The Palladium, NYC / 10-31-77)
DR8 0.00 dB -8.63 dB 5:22 26-Muffin Man (Live At The Palladium, NYC / 10-31-77)
DR8 0.00 dB -8.58 dB 5:02 27-San Ber’dino (Live At The Palladium, NYC / 10-31-77)
DR7 0.00 dB -8.81 dB 9:19 28-Black Napkins (Live At The Palladium, NYC / 10-31-77)
––––––––––––––––––––––––––––––––––––––––

Number of tracks: 28
Official DR value: DR9

Samplerate: 44100 Hz
Channels: 2
Bits per sample: 24
Bitrate: 1674 kbps
Codec: FLAC
================================================================================


Thanks to the Original customer.