G. Love & Special Sauce - Coming Home For Christmas (2017) [Official Digital Download 24/48]

Posted By: pyatak
G. Love & Special Sauce - Coming Home For Christmas (2017) [Official Digital Download 24/48]

G. Love & Special Sauce - Coming Home For Christmas (2017) [Official Digital Download 24/48]
FLAC (tracks) 24-bit/48 kHz | Front Cover | Time - 33:40 minutes | 424 MB
Rock, Blues, X-Mas | Label: Brushfire Records, Official Digital Download

Today I’m proud to release my first-ever holiday album, Coming Home For Christmas. This record has ten original Christmas anthems I wrote earlier this year. I holed up in Orleans, Massachusetts for six days in November and wrote one song per day. Within two days, I tracked the entire album alongside my producer Jon Evans at Brickhill Studios with Jon handling upright bass and Mathias Bossi on drums. In my family, we’ve always had a strong tradition of caroling and sharing songs on Christmas. My Uncle Bob and I used to lead the family through all of the traditional carols as well as rock ‘n’ roll hits like ‘Summertime Blues’ and ‘Steamroller Blues’. After my Uncle Bob passed, my brother-in-law Juan and I have continued the tradition. There was one of those Christmases back in the day when I got the flu or something and missed the family gathering, so I was home alone and wrote a couple of Christmas carols. ‘Christmas Blues’ and ‘Christmas Cookies’. It was then that I decided I would like to complete a full album of homegrown Christmas carols. I hope you enjoy listening to it as much as I enjoyed making it. You can grab it HERE, on Brushfire/Republic Records.


1. Christmas Morning
2. Christmas Change
3. Cape Cod Winter Blues
4. Merry Christmas
5. So Blessed
6. Christmas Baby
7. Christmas Rock
8. Christmas Blues
9. Christmas Cookies
10. Christmas Boogie

foobar2000 1.3.16 / Dynamic Range Meter 1.1.1
log date: 2017-12-09 21:39:43

Analyzed: G. Love / Coming Home For Christmas

DR Peak RMS Duration Track
DR8 0.00 dB -9.77 dB 2:38 01-Christmas Morning
DR9 0.00 dB -9.83 dB 2:59 02-Christmas Change
DR8 0.00 dB -9.73 dB 4:08 03-Cape Cod Winter Blues
DR9 0.00 dB -10.18 dB 3:13 04-Merry Christmas
DR13 0.00 dB -14.69 dB 4:19 05-So Blessed
DR9 0.00 dB -10.04 dB 3:08 06-Christmas Baby
DR9 0.00 dB -10.53 dB 2:32 07-Christmas Rock
DR12 0.00 dB -13.74 dB 3:45 08-Christmas Blues
DR10 0.00 dB -10.51 dB 2:16 09-Christmas Cookies
DR10 0.00 dB -11.16 dB 4:48 10-Christmas Boogie

Number of tracks: 10
Official DR value: DR10

Samplerate: 48000 Hz
Channels: 2
Bits per sample: 24
Bitrate: 1784 kbps
Codec: FLAC

Thanks to the Original customer.