Gabrielle Aplin - Dear Happy Deluxe (2020) [Official Digital Download]

Posted By: pyatak
Gabrielle Aplin - Dear Happy Deluxe (2020) [Official Digital Download]

Gabrielle Aplin - Dear Happy Deluxe (2020) [Official Digital Download]
FLAC (tracks) 24-bit/44.1 kHz | Front Cover | Time - 01:35:56 minutes | 1,05 GB
Pop | Label: Never Fade Records, Official Digital Download

This is a bonus version of the 3rd album by English singer-songwriter Gabrielle Aplin. It includes acoustic versions of all songs from the album which was released on 17 January 2020.

TRACKLIST

1. Gabrielle Aplin - Until The Sun Comes Up
2. Gabrielle Aplin - Invisible
3. Gabrielle Aplin - One of Those Days
4. Gabrielle Aplin - Kintsugi
5. Gabrielle Aplin - Strange
6. Gabrielle Aplin - My Mistake
7. Gabrielle Aplin - Like You Say You Do
8. Gabrielle Aplin, JP Cooper - Losing Me
9. Gabrielle Aplin - So Far so Good
10. Gabrielle Aplin - Nothing Really Matters
11. Gabrielle Aplin - Magic
12. Gabrielle Aplin - Love Back
13. Gabrielle Aplin - Miss You
14. Gabrielle Aplin - Dear Happy
15. Gabrielle Aplin - Until The Sun Comes Up (Piano Version)
16. Gabrielle Aplin - Invisible (Piano Version)
17. Gabrielle Aplin - One of Those Days (Piano Version)
18. Gabrielle Aplin - Kintsugi (Piano Version)
19. Gabrielle Aplin - Strange (Piano Version)
20. Gabrielle Aplin - My Mistake (Piano Version)
21. Gabrielle Aplin - Like You Say You Do (Piano Version)
22. Gabrielle Aplin, JP Cooper - Losing Me (Piano Version)
23. Gabrielle Aplin - So Far so Good (Piano Version)
24. Gabrielle Aplin - Nothing Really Matters (Piano Version)
25. Gabrielle Aplin - Magic (Piano Version)
26. Gabrielle Aplin - Love Back (Piano Version)
27. Gabrielle Aplin - Miss You (Piano Version)
28. Gabrielle Aplin - Dear Happy (Piano Version)

foobar2000 1.3.16 / Dynamic Range Meter 1.1.1
log date: 2020-08-19 08:04:15

––––––––––––––––––––––––––––––––––––––––
Analyzed: Gabrielle Aplin, JP Cooper / Dear Happy Deluxe (1-2)
Gabrielle Aplin / Dear Happy Deluxe (3-28)
––––––––––––––––––––––––––––––––––––––––

DR Peak RMS Duration Track
––––––––––––––––––––––––––––––––––––––––
DR7 -0.13 dB -9.81 dB 3:02 08-Losing Me
DR7 0.00 dB -8.47 dB 3:10 22-Losing Me (Piano Version)
DR6 0.00 dB -8.48 dB 3:10 01-Until The Sun Comes Up
DR6 0.00 dB -8.50 dB 3:56 02-Invisible
DR6 0.00 dB -10.99 dB 4:04 03-One of Those Days
DR6 0.00 dB -8.58 dB 2:56 04-Kintsugi
DR7 0.00 dB -7.93 dB 2:43 05-Strange
DR6 -0.06 dB -8.92 dB 4:25 06-My Mistake
DR6 0.00 dB -8.19 dB 3:07 07-Like You Say You Do
DR7 0.00 dB -9.51 dB 3:18 09-So Far so Good
DR6 -0.06 dB -9.22 dB 2:45 10-Nothing Really Matters
DR7 0.00 dB -9.08 dB 4:06 11-Magic
DR6 0.00 dB -9.54 dB 2:47 12-Love Back
DR6 0.00 dB -7.33 dB 3:18 13-Miss You
DR6 0.00 dB -10.04 dB 3:32 14-Dear Happy
DR6 -0.07 dB -8.60 dB 3:13 15-Until The Sun Comes Up (Piano Version)
DR6 0.00 dB -9.24 dB 3:58 16-Invisible (Piano Version)
DR4 -0.04 dB -7.52 dB 4:06 17-One of Those Days (Piano Version)
DR6 -0.09 dB -8.10 dB 2:55 18-Kintsugi (Piano Version)
DR6 0.00 dB -8.86 dB 2:50 19-Strange (Piano Version)
DR6 -0.42 dB -8.85 dB 4:52 20-My Mistake (Piano Version)
DR6 0.00 dB -8.20 dB 3:17 21-Like You Say You Do (Piano Version)
DR7 -0.08 dB -9.00 dB 3:17 23-So Far so Good (Piano Version)
DR7 -0.30 dB -10.01 dB 3:13 24-Nothing Really Matters (Piano Version)
DR7 -0.20 dB -9.88 dB 4:03 25-Magic (Piano Version)
DR6 -0.08 dB -7.95 dB 2:50 26-Love Back (Piano Version)
DR7 -1.35 dB -11.10 dB 3:34 27-Miss You (Piano Version)
DR6 0.00 dB -10.40 dB 3:29 28-Dear Happy (Piano Version)
––––––––––––––––––––––––––––––––––––––––

Number of tracks: 28
Official DR value: DR6

Samplerate: 44100 Hz
Channels: 2
Bits per sample: 24
Bitrate: 1443 kbps
Codec: FLAC
================================================================================



Thanks to the Original customer.
Pop