Gaëlle Solal - Tuhu (2020) [Official Digital Download 24/192]

Posted By: pyatak
Gaëlle Solal - Tuhu (2020) [Official Digital Download 24/192]

Gaëlle Solal - Tuhu (2020) [Official Digital Download 24/192]
FLAC (tracks) 24-bit/192 kHz | Front Cover | Time - 59:05 minutes | 1,97 GB
Classical | Label: Eudora Records, Official Digital Download

Winner of the Citiy of Alessandria Competition, French guitar virtuosa Gaëlle Solal delivers a buoyant, heart-filled, Villa-Lobos-based programme she has put together after several years of research and writing her own arrangements. Works of the great Brazilian composer alternate with delicate and exuberant compositions of Pixinguinha, Nazareth, Jobim and dyens, among others. A gem that merges Brazilian folk with Classical music into a unique, passionate album.

TRACKLIST

01. Gaelle Solal - Hommage a Villa-Lobos: IV. Tuhu
02. Gaelle Solal - Carinhoso
03. Gaelle Solal - Choros No. 1
04. Gaelle Solal - Constance
05. Gaelle Solal - Suite Populaire Bresilienne: I. Mazurka-Choro
06. Gaelle Solal - Tristorosa
07. Gaelle Solal - Trois Saudades: III. Saudade No. 3, dediee a Francis Kleynjans
08. Gaelle Solal - Prelude No. 2
09. Gaelle Solal - Brejeiro
10. Gaelle Solal - Modinha
11. Gaelle Solal - Chora Coracao
12. Gaelle Solal - Suite Populaire Bresilienne: II. Schottish-Choro
13. Gaelle Solal - Agua e Vinho
14. Gaelle Solal - Prelude No. 3
15. Gaelle Solal - Lamentos do Morro

foobar2000 1.6.2 / Dynamic Range Meter 1.1.1
log date: 2020-12-02 22:19:22

––––––––––––––––––––––––––––––––––––––––
Analyzed: Gaelle Solal / Tuhu
––––––––––––––––––––––––––––––––––––––––

DR Peak RMS Duration Track
––––––––––––––––––––––––––––––––––––––––
DR17 -0.08 dB -21.60 dB 2:14 01-Hommage a Villa-Lobos: IV. Tuhu
DR13 -9.75 dB -25.95 dB 3:48 02-Carinhoso
DR14 -6.11 dB -23.94 dB 4:47 03-Choros No. 1
DR13 -8.16 dB -25.19 dB 4:22 04-Constance
DR13 -8.71 dB -25.74 dB 3:25 05-Suite Populaire Bresilienne: I. Mazurka-Choro
DR14 -7.74 dB -25.97 dB 5:53 06-Tristorosa
DR16 -0.08 dB -24.95 dB 6:50 07-Trois Saudades: III. Saudade No. 3, dediee a Francis Kleynjans
DR14 -5.46 dB -23.09 dB 3:17 08-Prelude No. 2
DR16 -1.18 dB -22.62 dB 2:53 09-Brejeiro
DR15 -9.96 dB -28.64 dB 1:50 10-Modinha
DR14 -7.95 dB -27.20 dB 4:12 11-Chora Coracao
DR14 -6.57 dB -25.05 dB 3:59 12-Suite Populaire Bresilienne: II. Schottish-Choro
DR15 -5.07 dB -27.08 dB 4:15 13-Agua e Vinho
DR15 -6.77 dB -26.70 dB 3:13 14-Prelude No. 3
DR15 -3.04 dB -22.75 dB 4:08 15-Lamentos do Morro
––––––––––––––––––––––––––––––––––––––––

Number of tracks: 15
Official DR value: DR15

Samplerate: 192000 Hz
Channels: 2
Bits per sample: 24
Bitrate: 4826 kbps
Codec: FLAC
================================================================================



Thanks to the Original customer.