Johannes Pramsohler, Nahuel Di Pierro - German Cantatas with Solo Violin (2018) [Official Digital Download 24/96]

Posted By: SERTiL
Johannes Pramsohler, Nahuel Di Pierro - German Cantatas with Solo Violin (2018) [Official Digital Download 24/96]

Johannes Pramsohler, Nahuel Di Pierro - German Cantatas with Solo Violin (2018)
FLAC (tracks) 24-bit/96 kHz | Time - 84:02 minutes | 1.58 GB
Studio Master, Official Digital Download | Artwork: Digital Booklet

Following on from his previous hugely successful recordings on his Audax label, Johannes Pramsohler has assembled a top-class lineup of singers and, with his Ensemble Diderot, united all the German cantatas featuring a virtuoso solo violin on a captivating new album. Johann Pachelbel, Daniel Eberlin, and Johann Christoph Bach, who together with Johann Sebastian Bach’s father, the violinist Johann Ambrosius Bach, formed the core of musical life in Eisenach, are joined by the North-German Nicolaus Bruhns and Heinrich Ignaz Franz Biber from the south with their strikingly imaginative text settings. With precision, fire, and at times intensive devotion, Ensemble Diderot embraces these masterpieces of German compositional art which go far beyond the standard musical and rhetorical formulas of the time. This music constitutes not least the wonderfully fertile soil for Johann Sebastian Bach’s first impressions, impressions that were to accompany him throughout his life and to which, with the compilation of the Altbachisches Archiv, he erected a monument that even today is overwhelming in its musical radiance. Pramsohler says of his fellow performers on this disc: "I had a fantastic line up for this recording: - Nahuel Di Pierro, is an astonishing young bass who is creating a hugely successful career with performances at the ROH, Paris Opera, Zurich Opera - Christopher Purves, who surely doesn’t need to be introduced to UK audiences anymore - Andrea Hill, a fabulous young mezzo who sings major roles at Paris Opera, the MET and the likes… - Jorge Navarro Colorado, a young and very refreshing tenor who sings the world premiere of a cantata by Eberlin on this disc." Highly recommended.

Tracklist:
01. Nisi Dominus
02. Wie bist du denn, o Gott, in Zorn auf mich entbrannt
03. Christ ist erstanden
04. Mein Hertz ist bereit
05. Ich will in aller Not
06. Mein Fleisch ist die rechte Speise
07. Ach Herr, wie ist meiner Feinde so viel
08. Ach dass ich Wassers gnug hätte
09. Laetatus sum

Personnel:
Nahuel Di Pierro, bass​
Andrea Hill, mezzo-soprano​
Christopher Purves, bass-baritone​
Jorge Navarro Colorado, tenor​
Ensemble Diderot​
Johannes Pramsohler, violin, direction ​

foobar2000 1.3.7 / Dynamic Range Meter 1.1.1
log date: 2018-04-20 15:01:57

––––––––––––––––––––––––––––––––––––––––
Analyzed: Johannes Pramsohler, Nahuel Di Pierro, Ensemble Diderot, Andrea Hill, Jorge Navarro Colorado / German Cantatas with Solo Violin (Bonus Track Version)
––––––––––––––––––––––––––––––––––––––––

DR Peak RMS Duration Track
––––––––––––––––––––––––––––––––––––––––
DR15 -0.40 dB -18.42 dB 10:25 01-Nisi Dominus
DR14 -0.53 dB -18.74 dB 12:01 02-Wie bist du denn, o Gott, in Zorn auf mich entbrannt
DR13 -1.93 dB -19.57 dB 8:06 03-Christ ist erstanden
DR13 -0.40 dB -17.02 dB 9:18 04-Mein Hertz ist bereit
DR13 -2.38 dB -19.36 dB 8:00 05-Ich will in aller Not
DR14 -0.40 dB -18.98 dB 6:28 06-Mein Fleisch ist die rechte Speise
DR14 -0.65 dB -17.48 dB 11:40 07-Ach Herr, wie ist meiner Feinde so viel
DR12 -2.51 dB -19.58 dB 7:46 08-Ach dass ich Wassers gnug hätte
DR13 -0.40 dB -17.39 dB 10:23 09-Laetatus sum
––––––––––––––––––––––––––––––––––––––––

Number of tracks: 9
Official DR value: DR13

Samplerate: 96000 Hz
Channels: 2
Bits per sample: 24
Bitrate: 2734 kbps
Codec: FLAC
================================================================================


Thanks to the Original customer.