Giovanna Gatto - Respighi: Complete Piano Music, Vol. 1 - Original Piano Works I (2019) [Official Digital Download]

Posted By: SERTiL
Giovanna Gatto - Respighi: Complete Piano Music, Vol. 1 - Original Piano Works I (2019) [Official Digital Download]

Giovanna Gatto - Respighi: Complete Piano Music, Vol. 1 - Original Piano Works I (2019)
FLAC (tracks) 24-bit/44.1 kHz | Time - 53:55 minutes | 440 MB
Studio Master, Official Digital Download | Artwork: Digital Booklet

Respighis orchestral works are some of the most popular in the mainstream repertoire. His output of piano music, by contrast, is as good as unknown, and this new Toccata Classics series will be the first ever to present it all: original works and transcriptions alike, for solo piano, piano four hands and two pianos. This first instalment crowns his earliest keyboard compositions with the magisterial Three Preludes on Gregorian Melodies, miniature Lisztian tone-poems presented with Busonian grandeur.

Tracklist:
01. Piano Sonata in F Minor, P. 016: I. Allegro
02. Piano Sonata in F Minor, P. 016: II. Lento
03. Piano Sonata in F Minor, P. 016: III. Allegretto
04. Piano Suite, P. 043: No. 1, Preludio in B-Flat Minor
05. Preludio in D Minor, P. 043A
06. Toccata in D Dorian, P. 105B
07. Andante in F Major, P. 006
08. Andante in E Major, P. 006A
09. Andante in D Major, P. 007
10. 3 Preludes on Gregorian Melodies, P. 131: No. 1, Molto lento
11. 3 Preludes on Gregorian Melodies, P. 131: No. 2, Tempestoso
12. 3 Preludes on Gregorian Melodies, P. 131: No. 3, Lento

foobar2000 1.3.7 / Dynamic Range Meter 1.1.1
log date: 2019-08-06 16:33:08

––––––––––––––––––––––––––––––––––––––––
Analyzed: Giovanna Gatto / Respighi: Complete Piano Music, Vol. 1 — Original Piano Works I
––––––––––––––––––––––––––––––––––––––––

DR Peak RMS Duration Track
––––––––––––––––––––––––––––––––––––––––
DR12 -0.51 dB -16.78 dB 6:49 01-Piano Sonata in F Minor, P. 016: I. Allegro
DR14 -0.58 dB -21.10 dB 6:17 02-Piano Sonata in F Minor, P. 016: II. Lento
DR12 -1.22 dB -18.38 dB 3:21 03-Piano Sonata in F Minor, P. 016: III. Allegretto
DR12 -1.09 dB -19.54 dB 4:31 04-Piano Suite, P. 043: No. 1, Preludio in B-Flat Minor
DR16 -2.81 dB -23.99 dB 3:56 05-Preludio in D Minor, P. 043A
DR13 -1.11 dB -19.67 dB 2:56 06-Toccata in D Dorian, P. 105B
DR15 -3.81 dB -24.64 dB 2:24 07-Andante in F Major, P. 006
DR15 -2.62 dB -23.87 dB 3:22 08-Andante in E Major, P. 006A
DR15 -1.49 dB -21.40 dB 3:50 09-Andante in D Major, P. 007
DR12 -2.32 dB -20.62 dB 5:16 10-3 Preludes on Gregorian Melodies, P. 131: No. 1, Molto lento
DR11 -0.82 dB -16.04 dB 5:57 11-3 Preludes on Gregorian Melodies, P. 131: No. 2, Tempestoso
DR14 -1.70 dB -22.89 dB 5:22 12-3 Preludes on Gregorian Melodies, P. 131: No. 3, Lento
––––––––––––––––––––––––––––––––––––––––

Number of tracks: 12
Official DR value: DR13

Samplerate: 44100 Hz
Channels: 2
Bits per sample: 24
Bitrate: 1065 kbps
Codec: FLAC
================================================================================


Thanks to the Original customer.