Tags
Language
Tags

Quatuor Girard & Guillaume Bellom - Saint-Saëns Quatuor à cordes No. 1 (2019) [Official Digital Download 24/96]

Posted By: SERTiL
Quatuor Girard & Guillaume Bellom - Saint-Saëns Quatuor à cordes No. 1 (2019) [Official Digital Download 24/96]

Quatuor Girard, Guillaume Bellom - Saint-Saëns: Quatuor à cordes No. 1 - Quintette avec piano (Recorded Live at Fondation Singer-Polignac) (2019)
FLAC (tracks) 24-bit/96 kHz | Time - 59:33 minutes | 1.13 GB
Studio Master, Official Digital Download | Artwork: Digital Booklet

There is an entire life of composition between Saint-Saëns’s quintet and quartet — there are joys, sorrows, ideas and motifs, as well as the building of a life and an aesthetic. The Girard Quartet (Quatuor Girard) — currently one of the most promising French ensembles accompanied by young pianist Guillaume Bellom — wanted to capture this outstandingly delicate material on the new CD released by the B Records label. It was recorded in the calm and relaxed atmosphere of the Singer-Polignac Foundation.

Tracklist:
01. Quatuor à cordes No. 1 en Mi Mineur, Op. 112: I. Allegro più allegro (Recorded Live at Fondation Singer-Polignac)
02. Quatuor à cordes No. 1 en Mi Mineur, Op. 112: II. Scherzo-Molto allegro quasi presto (Recorded Live at Fondation Singer-Polignac)
03. Quatuor à cordes No. 1 en Mi Mineur, Op. 112: III. Molto adagio (Recorded Live at Fondation Singer-Polignac)
04. Quatuor à cordes No. 1 en Mi Mineur, Op. 112: IV. Finale (Allegro non troppo) (Recorded Live at Fondation Singer-Polignac)
05. Quintette pour piano et cordes en La Mineur, Op. 14: I. Allegro moderato e maestoso (Recorded Live at Fondation Singer-Polignac)
06. Quintette pour piano et cordes en La Mineur, Op. 14: II. Andante sostenuto (Recorded Live at Fondation Singer-Polignac)
07. Quintette pour piano et cordes en La Mineur, Op. 14: III. Presto (Recorded Live at Fondation Singer-Polignac)
08. Quintette pour piano et cordes en La Mineur, Op. 14: IV. Allegro assai ma tranquillo (Recorded Live at Fondation Singer-Polignac)

Personnel:
Quatuor Girard
Guillaume Bellom, piano

foobar2000 1.3.7 / Dynamic Range Meter 1.1.1
log date: 2019-04-03 20:58:19

––––––––––––––––––––––––––––––––––––––––
Analyzed: Quatuor Girard / Saint-Saëns: Quatuor à cordes No. 1 - Quintette avec piano
––––––––––––––––––––––––––––––––––––––––

DR Peak RMS Duration Track
––––––––––––––––––––––––––––––––––––––––
DR12 -0.01 dB -16.91 dB 10:53 01-Quatuor à cordes No. 1 en Mi Mineur, Op. 112: I. Allegro più allegro (Recorded Live at Fondation Singer-Polignac)
DR12 -0.01 dB -16.27 dB 5:39 02-Quatuor à cordes No. 1 en Mi Mineur, Op. 112: II. Scherzo-Molto allegro quasi presto (Recorded Live at Fondation Singer-Polignac)
DR14 -0.01 dB -19.16 dB 7:10 03-Quatuor à cordes No. 1 en Mi Mineur, Op. 112: III. Molto adagio (Recorded Live at Fondation Singer-Polignac)
DR13 -0.01 dB -17.25 dB 6:19 04-Quatuor à cordes No. 1 en Mi Mineur, Op. 112: IV. Finale (Allegro non troppo) (Recorded Live at Fondation Singer-Polignac)
DR10 -0.01 dB -14.97 dB 10:16 05-Quintette pour piano et cordes en La Mineur, Op. 14: I. Allegro moderato e maestoso (Recorded Live at Fondation Singer-Polignac)
DR17 -0.55 dB -23.66 dB 6:12 06-Quintette pour piano et cordes en La Mineur, Op. 14: II. Andante sostenuto (Recorded Live at Fondation Singer-Polignac)
DR10 -0.01 dB -14.79 dB 4:42 07-Quintette pour piano et cordes en La Mineur, Op. 14: III. Presto (Recorded Live at Fondation Singer-Polignac)
DR11 -0.01 dB -16.26 dB 8:25 08-Quintette pour piano et cordes en La Mineur, Op. 14: IV. Allegro assai ma tranquillo (Recorded Live at Fondation Singer-Polignac)
––––––––––––––––––––––––––––––––––––––––

Number of tracks: 8
Official DR value: DR13

Samplerate: 96000 Hz
Channels: 2
Bits per sample: 24
Bitrate: 2688 kbps
Codec: FLAC
================================================================================


Thanks to the Original customer.