Edgaras Montvidas, Jean-François Lapointe, Véronique Gens - Godard: Dante (2017) [Official Digital Download]

Posted By: SERTiL
Edgaras Montvidas, Jean-François Lapointe, Véronique Gens - Godard: Dante (2017) [Official Digital Download]

Edgaras Montvidas, Jean-François Lapointe, Véronique Gens - Godard: Dante (2017)
FLAC (tracks) 24-bit/48 kHz | Time - 140:43 minutes | 1.39 GB
Studio Master, Official Digital Download | Artwork: Digital booklet

Dante Alighieri, born in Florence in 1265, was at once a poet and an important political figure of his time. His celebrated Divine Comedy relates his supposed descent to Hell and slow ascent to Paradise. Godard’s operatic treatment of his life (1890) skilfully juxtaposes the political milieu – crowd scenes in Florence and the quarrel between Guelfs and Ghibellines – with the expression of the courtly love he feels for Beatrice, betrothed to his friend Bardi.

The most remarkable element of the opera is the integration of a ‘Vision’ that is nothing less than a synthesis of the Divine Comedy set to music. Its third act is built around a fantasy ‘Hell’ and ‘Paradise’, featuring an Apparition of Virgil, Chorus of the Damned, Infernal Whirlwind, Divine Radiance and Apotheosis of Beatrice. Godard is here at the peak of his melodic inspiration and compositional mastery, in a style that brings Gounod up to date and need not fear comparison with Massenet.



Tracklist:

Benjamin Godard (1849-1895)

CD1
01. Dante, Acte I: No. 1, Introduction "Malheur à vous"
02. Dante, Acte I: No. 2, Récit et Cantilène "Guelfes ou Gibelins, qu'importe"
03. Dante, Acte I: No. 3, Scène "Il a raison"
04. Dante, Acte I: No. 4, Duo "Ah ! puisse la voix populaire"
05. Dante, Acte I: No. 5, Récit et Air "Ah ! de tous mes espoirs"
06. Dante, Acte I: No. 6, Duo "Courage, Béatrice"
07. Dante, Acte I: No. 7, Finale "Le peuple a rendu sa sentence"
08. Dante, Acte I: No. 7, Suite du Finale "Quand ils vont aux dangers"
09. Dante, Acte I: No. 7, Suite du Finale "Voici notre drapeau"
10. Dante, Acte II: No. 8, Entr'acte et Air "Nos généreux espoirs"
11. Dante, Acte II: No. 9, Duo "Gemma !…"
12. Dante, Acte II: No. 9, Suite du Duo "À lui, dès son enfance"
13. Dante, Acte II: No. 10, Récit et Romance "Paroles de haine"
14. Dante, Acte II: No. 11, Duo "C'est lui !"
15. Dante, Acte II: No. 12, Final "Cher Gonfalonier de justice"
16. Dante, Acte II: No. 12, Suite du Final "C'en est fait !"
17. Dante, Acte II: No. 12, Suite du Final "Maintenant, vous pouvez remettre"

CD2
01. Dante, Acte III: No. 13, Tarentelle
02. Dante, Acte III: No. 14, Scène "Allons, amis"
03. Dante, Acte III: No. 15, Ode à Virgile: "Ô maître"-No. 16, Scène "Partons"
04. Dante, Acte III: No. 17, Invocation "Encore un jour qui tombe"
05. Dante, Acte III: No. 18, Apparition de Virgile "Dante… C'est chose bien fragile"
06. Dante, Acte III: No. 19, La Nuit "La nuit !…"
07. Dante, Acte III: No. 20, Chœur des Damnés-No. 21, Apparition d'Ugolin " Toujours !"
08. Dante, Acte III: No. 22, Tourbillon infernal "Ah !"
09. Dante, Acte III: No. 23, Apparition de Paolo et Francesca-No. 24, Divines clartés "Deux êtres vont là-bas"
10. Dante, Acte III: No. 25, Chœur céleste "Gloire à celui qui rayonne"
11. Dante, Acte III: No. 26, Apparition de Béatrice "Je vais dans l'azur sans voiles"
12. Dante, Acte IV: No. 27, Entr'acte
13. Dante, Acte IV: No. 28, Scène et Duo "Ah !"
14. Dante, Acte IV: No. 28, Duo "Pardonnez-moi !"
15. Dante, Acte IV: No. 29, Prélude
16. Dante, Acte IV: No. 30, Scène "Elle se rend à la chapelle"
17. Dante, Acte IV: Suite du No. 30-Romance "Au milieu de vous"
18. Dante, Acte IV: No. 31, Duo "Je viens te retrouver"
19. Dante, Acte IV: Suite du No. 31 : Ah ! que tu me fais mal
20. Dante, Acte IV: No. 32, Scène "C'est moi que l'on appelle"
21. Dante, Acte IV: Suite du No. 32-Air "De l'éternel sommeil"
22. Dante, Acte IV: No. 33, Quatuor "Je n'ose lui parler"
23. Dante, Acte IV: Suite du No. 33, Quatuor "Ô l'ineffable et pure ivresse"
24. Dante, Acte IV: No. 34, Duetto "Nous allons partir tous deux"
25. Dante, Acte IV: No. 35, Suite du Finale "Partons !"

Personnel:
Veronique Gens, soprano (Béatrice)
Rachel Frenkel, mezzo-soprano (Gemma)
Diana Axentii, mezzo-soprano (Un Ecolier)
Edgaras Montvidas, tenor (Dante)
Andrew Lepri Meyer, tenor (Un Héraut)
Andrew Foster-Williams, bass baritone (Virgils Schatten / Alter Mann)
Chor des Bayerischen Rundfunks
Münchner Rundfunkorchester
Ulf Schirmer, direction

foobar2000 1.3.7 / Dynamic Range Meter 1.1.1
log date: 2017-11-01 13:20:11

––––––––––––––––––––––––––––––––––––––––
Analyzed: Andrew Foster-Williams / Chor des Bayerischen Rundfunks / Münchner Rundfunkorchester / Ulf Schirmer / Godard: Dante (1)
Chor des Bayerischen Rundfunks / Münchner Rundfunkorchester / Ulf Schirmer / Godard: Dante (2-3)
Diana Axentii / Chor des Bayerischen Rundfunks / Münchner Rundfunkorchester / Ulf Schirmer / Godard: Dante (4)
Edgaras Montvidas / Andrew Foster-Williams / Chor des Bayerischen Rundfunks / Münchner Rundfunkorchester / Ulf Schirmer / Godard: Dante (5-7)
Edgaras Montvidas / Andrew-Foster Williams / Münchner Rundfunkorchester / Ulf Schirmer / Godard: Dante (8)
Edgaras Montvidas / Chor des Bayerischen Rundfunks / Münchner Rundfunkorchester / Ulf Schirmer / Godard: Dante (9-10)
Edgaras Montvidas / Jean-François Lapointe / Chor des Bayerischen Rundfunks / Münchner Rundfunkorchester / Ulf Schirmer / Godard: Dante (11)
Edgaras Montvidas / Jean-François Lapointe / Münchner Rundfunkorchester / Ulf Schirmer / Godard: Dante (12-13)
Edgaras Montvidas / Münchner Rundfunkorchester / Ulf Schirmer / Godard: Dante (14-16)
Jean-François Lapointe / Münchner Rundfunkorchester / Ulf Schirmer / Godard: Dante (17)
Münchner Rundfunkorchester / Ulf Schirmer / Godard: Dante (18-20)
Rachel Frenkel / Jean-François Lapointe / Münchner Rundfunkorchester / Ulf Schirmer / Godard: Dante (21-22)
Rachel Frenkel / Münchner Rundfunkorchester / Ulf Schirmer / Godard: Dante (23-24)
Véronique Gens / Edgaras Montvidas / Chor des Bayerischen Rundfunks / Münchner Rundfunkorchester / Ulf Schirmer / Godard: Dante (25)
Véronique Gens / Edgaras Montvidas / Jean-François Lapointe / Andrew Lepri Meyer / Chor des Bayerischen Rundfunks / Münchner Rundfunkorchester / Ulf Schirmer / Godard: Dante (26)
Véronique Gens / Edgaras Montvidas / Jean-François Lapointe / Chor des Bayerischen Rundfunks / Münchner Rundfunkorchester / Ulf Schirmer / Godard: Dante (27-28)
Véronique Gens / Edgaras Montvidas / Münchner Rundfunkorchester / Ulf Schirmer / Godard: Dante (29-30)
Véronique Gens / Münchner Rundfunkorchester / Ulf Schirmer / Godard: Dante (31-32)
Véronique Gens / Rachel Frenkel / Edgaras Montvidas / Jean-François Lapointe / Chor des Bayerischen Rundfunks / Münchner Rundfunkorchester / Ulf Schirmer / Godard: Dante (33-35)
Véronique Gens / Rachel Frenkel / Edgaras Montvidas / Jean-François Lapointe / Münchner Rundfunkorchester / Ulf Schirmer / Godard: Dante (36-37)
Véronique Gens / Rachel Frenkel / Edgaras Montvidas / Münchner Rundfunkorchester / Ulf Schirmer / Godard: Dante (38)
Véronique Gens / Rachel Frenkel / Münchner Rundfunkorchester / Ulf Schirmer / Godard: Dante (39-42)
––––––––––––––––––––––––––––––––––––––––

DR Peak RMS Duration Track
––––––––––––––––––––––––––––––––––––––––
DR14 -9.42 dB -27.77 dB 1:48 02-Dante, Acte III: No. 14, Scène "Allons, amis"
DR13 -1.06 dB -17.12 dB 3:51 01-Dante, Acte I: No. 1, Introduction "Malheur à vous"
DR13 -5.14 dB -23.05 dB 2:43 03-Dante, Acte I: No. 3, Scène "Il a raison"
DR13 -2.86 dB -22.59 dB 4:54 03-Dante, Acte III: No. 15, Ode à Virgile: "Ô maître"-No. 16, Scène "Partons"
DR11 -1.67 dB -17.87 dB 2:58 07-Dante, Acte III: No. 20, Chœur des Damnés-No. 21, Apparition d'Ugolin " Toujours !"
DR12 -2.91 dB -19.03 dB 3:26 08-Dante, Acte III: No. 22, Tourbillon infernal "Ah !"
DR12 -4.13 dB -22.96 dB 3:18 09-Dante, Acte III: No. 23, Apparition de Paolo et Francesca-No. 24, Divines clartés "Deux êtres vont là-bas"
DR12 -6.42 dB -24.03 dB 3:03 05-Dante, Acte III: No. 18, Apparition de Virgile "Dante… C'est chose bien fragile"
DR14 -5.40 dB -24.76 dB 3:30 02-Dante, Acte I: No. 2, Récit et Cantilène "Guelfes ou Gibelins, qu'importe"
DR11 -3.76 dB -18.42 dB 2:27 10-Dante, Acte III: No. 25, Chœur céleste "Gloire à celui qui rayonne"
DR15 -9.23 dB -31.29 dB 3:31 13-Dante, Acte IV: No. 28, Scène et Duo "Ah !"
DR14 -6.59 dB -26.06 dB 6:28 04-Dante, Acte I: No. 4, Duo "Ah ! puisse la voix populaire"
DR12 -5.46 dB -22.65 dB 4:13 14-Dante, Acte IV: No. 28, Duo "Pardonnez-moi !"
DR12 -6.24 dB -23.74 dB 4:07 05-Dante, Acte I: No. 5, Récit et Air "Ah ! de tous mes espoirs"
DR11 -6.46 dB -23.50 dB 5:25 04-Dante, Acte III: No. 17, Invocation "Encore un jour qui tombe"
DR11 -7.49 dB -21.13 dB 2:12 06-Dante, Acte III: No. 19, La Nuit "La nuit !…"
DR14 -5.57 dB -25.49 dB 5:08 10-Dante, Acte II: No. 8, Entr'acte et Air "Nos généreux espoirs"
DR12 -6.09 dB -23.69 dB 4:31 01-Dante, Acte III: No. 13, Tarentelle
DR10 -7.01 dB -22.11 dB 1:55 12-Dante, Acte IV: No. 27, Entr'acte
DR12 -7.76 dB -25.37 dB 3:30 15-Dante, Acte IV: No. 29, Prélude
DR13 -6.40 dB -25.04 dB 2:58 11-Dante, Acte II: No. 9, Duo "Gemma !…"
DR12 -3.77 dB -22.49 dB 4:53 12-Dante, Acte II: No. 9, Suite du Duo "À lui, dès son enfance"
DR14 -8.45 dB -30.26 dB 1:49 16-Dante, Acte IV: No. 30, Scène "Elle se rend à la chapelle"
DR13 -6.69 dB -25.44 dB 3:12 17-Dante, Acte IV: Suite du No. 30-Romance "Au milieu de vous"
DR12 -3.11 dB -21.38 dB 3:31 11-Dante, Acte III: No. 26, Apparition de Béatrice "Je vais dans l'azur sans voiles"
DR14 -0.33 dB -20.74 dB 3:57 17-Dante, Acte II: No. 12, Suite du Final "Maintenant, vous pouvez remettre"
DR12 -4.18 dB -21.93 dB 3:39 15-Dante, Acte II: No. 12, Final "Cher Gonfalonier de justice"
DR12 -0.02 dB -16.58 dB 1:57 16-Dante, Acte II: No. 12, Suite du Final "C'en est fait !"
DR12 -4.90 dB -21.26 dB 4:53 14-Dante, Acte II: No. 11, Duo "C'est lui !"
DR12 -6.30 dB -25.28 dB 2:14 24-Dante, Acte IV: No. 34, Duetto "Nous allons partir tous deux"
DR11 -8.42 dB -24.80 dB 4:03 13-Dante, Acte II: No. 10, Récit et Romance "Paroles de haine"
DR11 -6.22 dB -22.37 dB 4:19 21-Dante, Acte IV: Suite du No. 32-Air "De l'éternel sommeil"
DR12 -2.51 dB -19.26 dB 3:26 07-Dante, Acte I: No. 7, Finale "Le peuple a rendu sa sentence"
DR11 -0.59 dB -18.88 dB 1:52 08-Dante, Acte I: No. 7, Suite du Finale "Quand ils vont aux dangers"
DR11 -0.03 dB -17.04 dB 2:20 09-Dante, Acte I: No. 7, Suite du Finale "Voici notre drapeau"
DR13 -6.16 dB -24.93 dB 1:33 23-Dante, Acte IV: Suite du No. 33, Quatuor "Ô l'ineffable et pure ivresse"
DR12 -4.30 dB -23.24 dB 4:43 25-Dante, Acte IV: No. 35, Suite du Finale "Partons !"
DR11 -5.28 dB -22.08 dB 2:01 22-Dante, Acte IV: No. 33, Quatuor "Je n'ose lui parler"
DR12 -8.17 dB -26.75 dB 6:02 06-Dante, Acte I: No. 6, Duo "Courage, Béatrice"
DR13 -7.26 dB -25.99 dB 1:33 18-Dante, Acte IV: No. 31, Duo "Je viens te retrouver"
DR11 -4.96 dB -21.33 dB 2:10 19-Dante, Acte IV: Suite du No. 31 : Ah ! que tu me fais mal
DR10 -5.37 dB -24.70 dB 0:57 20-Dante, Acte IV: No. 32, Scène "C'est moi que l'on appelle"
––––––––––––––––––––––––––––––––––––––––

Number of tracks: 42
Official DR value: DR12

Samplerate: 48000 Hz
Channels: 2
Bits per sample: 24
Bitrate: 1303 kbps
Codec: FLAC
================================================================================


Thanks to the Original customer.