Tags
Language
Tags

Grant Green - Green: Funk in France - Paris to Antibes (Live - Remastered) (2019) [Official Digital Download 24/192]

Posted By: SERTiL
Grant Green - Green: Funk in France - Paris to Antibes (Live - Remastered) (2019) [Official Digital Download 24/192]

Grant Green - Green: Funk in France - Paris to Antibes (Live - Remastered) (2019)
FLAC (tracks) 24-bit/192 kHz | Time - 118:01 minutes | 7.62 GB
Studio Master, Official Digital Download | Artwork: Digital Booklet

Funk in France: From Paris to Antibes (1969-1970): In partnership with the French National Audiovisual Institute (Ina), FUNK IN FRANCE: From Paris to Antibes (1969-1970) is the first official, previously unissued live recordings of legendary guitarist Grant Green in over a decade. This double album-set brings together a collection of recordings of Green captured at the ORTF studios in Paris on October 26, 1969 with bassist Larry Ridley and drummer Don Lamond, also including jazz guitar legend Barney Kessel comping behind Green on the beautiful “I Wish You Love;” plus full concert recordings from June 18 and 20, 1970 at the Antibes Jazz Festival featuring saxophonist Claude Bartee and organist Clarence Palmer, who both played on Green’s classic 1969 Blue Note album Carryin’ On, and drummer Billy Wilson. The ORTF studio session was taped for a radio broadcast produced by legendary French producer André Francis, and the Antibes recording was taped less than a month before Green’s first live release Alive! on Blue Note Records. Both performances showcase Green’s early transition to a heavier, funkier sound as he entered the 1970s. This is the first time any of these songs from the Carryin’ On and Iron City albums are being made available as live performances and represent his earliest live recording as a leader. The 48-page booklet for Funk in France includes essays by the renowned Blue Note Records discographer, writer and executive producer of this album Michael Cuscuna, along with producer Zev Feldman of Resonance and Pascal Rozat of Ina; interviews with Soulive guitarist Eric Krasno, the legendary organist Dr. Lonnie Smith, Grant Green’s eldest son Greg Green (aka Grant Green Jr.) and the organist from the Antibes concerts, Clarence Palmer; plus memorabilia and previously unpublished photos by French photographers Christian Rose and Jean-Pierre Leloir taken at the ORTF studio 104 and Antibes Jazz Festival, as well as jazz photography icon Chuck Stewart.

Tracklist:
1. I Don't Want Nobody to Give Me Nothing 04:34
2. Oleo (Live): Oleo 04:24
3. Insensatez (How Insensitive) 07:18
4. Untitled Blues 08:09
5. Sonnymoon for Two 07:00
6. I Wish You Love 07:06
7. Upshot 18:02
8. Hurt So Bad 14:35
9. Upshot 19:46
10. Hi-Heel Sneakers 27:13

Personnel:
Grant Green, guitar
Larry Ridley, bass
Don Lamond, drums
Barney Kessel, guitar (on track 6)

July 18 & 20, 1970 at the Antibes Jazz Festival in Juan-les-Pins
Grant Green, guitar
Claude Bartee, tenor saxophone
Clarence Palmer, organ
Billy Wilson, drums

Digitally remastered

foobar2000 1.3.7 / Dynamic Range Meter 1.1.1
log date: 2019-08-13 14:47:26

––––––––––––––––––––––––––––––––––––––––
Analyzed: Grant Green / Green: Funk in France - Paris to Antibes (Live)
––––––––––––––––––––––––––––––––––––––––

DR Peak RMS Duration Track
––––––––––––––––––––––––––––––––––––––––
DR11 -4.83 dB -18.10 dB 4:33 01-I Don't Want Nobody to Give Me Nothing
DR10 -4.83 dB -17.33 dB 4:21 02-Oleo (Live): Oleo
DR9 -4.86 dB -16.73 dB 7:19 03-Insensatez (How Insensitive)
DR11 -2.75 dB -18.03 dB 8:07 04-Untitled Blues
DR12 -4.93 dB -18.98 dB 7:02 05-Sonnymoon for Two
DR10 -4.36 dB -16.77 dB 7:05 06-I Wish You Love
DR10 -5.03 dB -17.13 dB 18:01 07-Upshot
DR10 -4.76 dB -16.11 dB 14:34 08-Hurt So Bad
DR8 -4.68 dB -14.89 dB 19:46 09-Upshot
DR8 -4.68 dB -15.65 dB 27:17 10-Hi-Heel Sneakers
––––––––––––––––––––––––––––––––––––––––

Number of tracks: 10
Official DR value: DR10

Samplerate: 192000 Hz
Channels: 2
Bits per sample: 24
Bitrate: 9233 kbps
Codec: FLAC
================================================================================


Thanks to the Original customer.