Grant Green - Grant Green, Slick! Live at Oil Can Harry’s (Remastered) (2019) [Official Digital Download 24/192]

Posted By: SERTiL
Grant Green - Grant Green, Slick! Live at Oil Can Harry’s (Remastered) (2019) [Official Digital Download 24/192]

Grant Green - Grant Green, Slick! Live at Oil Can Harry’s (Remastered) (2019)
FLAC (tracks) 24-bit/192 kHz | Time - 58:59 minutes | 2.25 GB
Studio Master, Official Digital Download | Artwork: Front Cover

SLICK! - Live at Oil Can Harry’s is a never-before-released recording from jazz guitar great Grant Green captured live on September 5, 1975 at a popular club in Vancouver, BC Canada called Oil Can Harry’s. Featuring a primarily Detroit-based band with Emmanuel Riggins (father of drummer Karriem Riggins) on electric piano, Ronnie Ware on bass, drummer Greg “Vibrations” Williams (Jack McDuff, Lou Donaldson) and Gerald Izzard on percussion, Slick!’s centerpiece is the over 30 minute funk exploration medley of Stanley Clarke’s “Vulcan Princess,” “Skin Tight” by the Ohio Players, Bobby Womack’s “Woman’s Gotta Have It,” “Boogie On Reggae Woman” by Stevie Wonder and “For the Love of Money” by the O’Jays. This recording was originally broadcast on CHQM-FM and has been transferred from the original 10” reels to reveal a sterling sonic experience. Aside from Resonance’s companion release Funk in France, being released simultaneously with this recording, this is only the 4th live recording released of the under-appreciated jazz guitar hero. Recorded 3 years after the classic Live at the Lighthouse album that came out on Blue Note in 1972, this marks the latest known official live Grant Green recording on CD and LP. For Slick!, Resonance has assembled an exhaustive 48-page booklet including essays by noted music journalist A. Scott Galloway, Vancouver DJ and Gary Barclay and Resonance producer Zev Feldman; interviews with Detroit jazz guitar legend Perry Hughes (in conversation with guitarist Jacques Lesure, a fellow Detroit native), Grant Green’s eldest son Greg Green (aka Grant Green Jr.), drummer Greg “Vibrations” Williams, as well as excerpts from archival interviews conducted by Gary Barclay with Grant Green and Emmanuel Riggins in September of 1975. The package also features a number of previously unpublished photos taken during the Oil Can Harry’s engagement by Vancouver-based photographer Gerry Nairn.

Tracklist:
1. Now's the Time 08:21
2. How Insensitive (insensatez) 26:00
3. Medley Part 1 and 2 31:52

Personnel:
Grant Green – guitar
Emmanuel Riggins – electric piano
Ronnie Ware – bass
Greg “Vibrations”Williams – drums
Gerald Izzard – percussion

foobar2000 1.3.7 / Dynamic Range Meter 1.1.1
log date: 2019-09-17 14:14:30

––––––––––––––––––––––––––––––––––––––––
Analyzed: GRANT GREEN / Grant Green, Slick! Live at Oil Can Harry’s (Remastered)
––––––––––––––––––––––––––––––––––––––––

DR Peak RMS Duration Track
––––––––––––––––––––––––––––––––––––––––
DR11 -2.51 dB -16.06 dB 8:22 01-Now's the Time
DR11 -2.94 dB -17.61 dB 26:00 02-How Insensitive (insensatez)
DR13 -3.19 dB -18.91 dB 31:52 03-Medley Part 1 and 2
––––––––––––––––––––––––––––––––––––––––

Number of tracks: 3
Official DR value: DR12

Samplerate: 192000 Hz
Channels: 2
Bits per sample: 24
Bitrate: 4809 kbps
Codec: FLAC
================================================================================


Thanks to the Original customer.