Greetje Kauffeld & The Paul Kuhn Trio - My Shining Hour (Remastered Deluxe Edition) (2005/2021) [24/96]

Posted By: pyatak
Greetje Kauffeld & The Paul Kuhn Trio - My Shining Hour (Remastered Deluxe Edition) (2005/2021) [24/96]

Greetje Kauffeld & The Paul Kuhn Trio - My Shining Hour (Remastered Deluxe Edition) (2005/2021) [24/96]
FLAC (tracks) 24-bit/96 kHz | Front Cover | Time - 61:51 minutes | 1,14 GB
Vocal Jazz | Label: IN+OUT Records, Official Digital Download

The centenary of his birth (15.2.2005) has passed unnoticed by many music lovers. It is Harold Arlen's fate that he is credited as composer for more jazz standards of the Great American Songbook than any other writer, but nevertheless remains unknown to a great deal of his audience. The career of this cantor's son from Buffalo is unmatched, led him from the bars of his hometown to Harlem's Cotton Club to the Broadway and finally to Hollywood. This genius of a songwriter created songs for 29 films, "Over The Rainbow" from "The Wizard Of Oz" was just chosen as film song of the century. 35 songs of his work can claim the status of an evergreen. Johnny Mercer once described his sophisticated but at the same time catchy style as unique "fusion of classical Jewish music and negro spirituals".

On "My Shining Hour" a splendid team has come together to pay tribute to this giant of American's jazz history. The two protagonists look back to four decades of joint sessions and stage experiences, the doyen of German piano jazz Paul Kuhn and the brilliant and warmhearted voice of Greetje Kauffeld. The Dutch woman who chose Doris Day, Nacny Wilson and Ella as her early idols, stared performing at the age of 13 for a radio show. Berlin's RIAS Big Band, collaborations with Ray Brown, Herb Ellis, Toots Thielemans and Stan Getz are some of the stunning stopovers of her career. But her duo work with Paul Kuhn with whom she already recorded witty "schlagers" in the 1960s ranks as particularly heartfelt among all of her teamworks. Says Kuhn: "I have had the pleasure to work with Greetje Kauffeld over more than four decades and she is a wonderful singer, she belongs to the elite of the jazz vocalists. Her singing is very soulfull, her warm voice fits perfectly with Arlen's ballads. I'm sure he'd like her interpretations very much." From the touching duet "Let's Fall In Love" to the lively "It's Only A Paper Moon", the intimate and more rarely heard "A Sleepin' Bee" to a four song medley with a surprising spin to "Come Rain Or Come Shine" we take a relaxed walk through Arlen's classic contributions to the Gret American Songbook. The world wide known "Over The Rainbow" is also included, of course.

Arlen's music is timeless. This fact is vividly demonstrated by two young guests, who Kauffeld and Kuhn's trio (Paul G. Ulrich, b and Willy Ketzer, dr) invited to the stage, when they performed at the Muddy's Club, Weinheim to record their CD during two evening sessions. Paulo Morello (g) and Kim Barth (sax, fl) have caused some excitement with their German-Danish-Brazilian project "The Bossa Nova Legends" within the jazz as well as the Latin circuit. Bossa Nova made in Germany with famous names of Rio's musical past - these tropically swinging vibrations are the background for some moments on this recording, displaying an airy, carefree magic full of surprising intros and intermezzi. Different generations who are contributing to a classical excursion: Moments of glory, a real "Shining Hour" for Greetje Kauffeld’s rich CD catalogue.

TRACKLIST

01. Greetje Kauffeld & The Paul Kuhn Trio - Happiness Is a Thing Called Joe
02. Greetje Kauffeld & The Paul Kuhn Trio - It's Only a Papermoon
03. Greetje Kauffeld & The Paul Kuhn Trio - A Sleepin' Bee
04. Greetje Kauffeld & The Paul Kuhn Trio - Harold Arlen Medley
05. Greetje Kauffeld & The Paul Kuhn Trio - My Shining Hour
06. Greetje Kauffeld & The Paul Kuhn Trio - Over the Rainbow
07. Greetje Kauffeld & The Paul Kuhn Trio - That Old Black Magic
08. Greetje Kauffeld & The Paul Kuhn Trio - Ill Wind
09. Greetje Kauffeld & The Paul Kuhn Trio - Out of This World
10. Greetje Kauffeld & The Paul Kuhn Trio - Last Night When We Where Young
11. Greetje Kauffeld & The Paul Kuhn Trio - Let's Fall in Love
12. Greetje Kauffeld & The Paul Kuhn Trio - One for My Baby

foobar2000 1.6.2 / Dynamic Range Meter 1.1.1
log date: 2021-04-07 19:37:40

––––––––––––––––––––––––––––––––––––––––
Analyzed: Greetje Kauffeld & The Paul Kuhn Trio / My Shining Hour (Remastered Deluxe Edition)
––––––––––––––––––––––––––––––––––––––––

DR Peak RMS Duration Track
––––––––––––––––––––––––––––––––––––––––
DR13 -0.56 dB -16.49 dB 5:01 01-Happiness Is a Thing Called Joe
DR11 -0.50 dB -13.33 dB 4:33 02-It's Only a Papermoon
DR13 -0.50 dB -17.51 dB 4:16 03-A Sleepin' Bee
DR13 -0.50 dB -16.12 dB 5:01 04-Harold Arlen Medley
DR11 -0.50 dB -14.84 dB 4:11 05-My Shining Hour
DR13 -0.68 dB -16.85 dB 6:45 06-Over the Rainbow
DR13 -0.50 dB -15.19 dB 4:24 07-That Old Black Magic
DR12 -1.89 dB -18.36 dB 5:15 08-Ill Wind
DR13 -0.50 dB -16.68 dB 6:13 09-Out of This World
DR11 -1.95 dB -17.80 dB 4:33 10-Last Night When We Where Young
DR12 -0.50 dB -15.88 dB 5:08 11-Let's Fall in Love
DR15 -0.50 dB -19.09 dB 6:40 12-One for My Baby
––––––––––––––––––––––––––––––––––––––––

Number of tracks: 12
Official DR value: DR13

Samplerate: 96000 Hz
Channels: 2
Bits per sample: 24
Bitrate: 2654 kbps
Codec: FLAC
================================================================================



Thanks to the Original customer.