Griff - One Foot In Front Of The Other (2021) [Official Digital Download]

Posted By: pyatak
Griff - One Foot In Front Of The Other (2021) [Official Digital Download]

Griff - One Foot In Front Of The Other (2021) [Official Digital Download]
FLAC (tracks) 24-bit/48-96 kHz | Front Cover | Time - 20:25 minutes | 278 MB
Pop | Label: Warner Records, Official Digital Download

One Foot in Front of the Other is the first mixtape by British singer-songwriter Griff. It was released on 18 June 2021 by label Warner Records. It follows Griff's debut extended play (EP) The Mirror Talk (2019). The mixtape's lead single "Black Hole" was released on 18 January 2021, which was performed at the 2021 Brit Awards in May 2021, where she was awarded the Brit Award for Rising Star. The single was followed by the release of the title track and "Shade of Yellow". Originally set to be released on 11 June, the release was pushed back by one week.

TRACKLIST

1. Griff - Black Hole
2. Griff - One Foot in Front of the Other
3. Griff - Shade of Yellow
4. Griff - Heart of Gold
5. Griff - Remembering My Dreams
6. Griff - Earl Grey Tea
7. Griff - Walk

foobar2000 1.6.2 / Dynamic Range Meter 1.1.1
log date: 2021-06-18 00:07:03

––––––––––––––––––––––––––––––––––––––––
Analyzed: Griff / One Foot In Front Of The Other
––––––––––––––––––––––––––––––––––––––––

DR Peak RMS Duration Track
––––––––––––––––––––––––––––––––––––––––
DR4 0.00 dB -7.12 dB 3:21 01-Black Hole
DR5 0.00 dB -7.13 dB 3:12 02-One Foot in Front of the Other
DR5 -0.11 dB -6.08 dB 2:37 03-Shade of Yellow
DR4 -0.31 dB -7.03 dB 3:22 05-Remembering My Dreams
DR6 -0.11 dB -9.14 dB 2:47 06-Earl Grey Tea
DR5 -0.11 dB -7.73 dB 2:33 07-Walk
––––––––––––––––––––––––––––––––––––––––

Number of tracks: 6
Official DR value: DR5

Samplerate: 48000 Hz
Channels: 2
Bits per sample: 24
Bitrate: 1723 kbps
Codec: FLAC
================================================================================

––––––––––––––––––––––––––––––––––––––––
Statistics for: 04-Heart of Gold
Number of samples: 15005321
Duration: 2:36
––––––––––––––––––––––––––––––––––––––––

Left Right

Peak Value: -0.21 dB –- -0.21 dB
Avg RMS: -6.33 dB –- -6.14 dB
DR channel: 5.13 dB –- 4.90 dB
––––––––––––––––––––––––––––––––––––––––

Official DR Value: DR5

Samplerate: 96000 Hz
Channels: 2
Bits per sample: 24
Bitrate: 2909 kbps
Codec: FLAC
================================================================================


Thanks to the Original customer.