Guntis Kuzma - Ķeniņš - Symphonies Nos. 4 & 6 & Canzona sonata (2021) [Official Digital Download 24/96]

Posted By: pyatak
Guntis Kuzma - Ķeniņš - Symphonies Nos. 4 & 6 & Canzona sonata (2021) [Official Digital Download 24/96]

Guntis Kuzma - Ķeniņš - Symphonies Nos. 4 & 6 & Canzona sonata (2021) [Official Digital Download 24/96]
FLAC (tracks) 24-bit/96 kHz | Front Cover | Time - 52:50 minutes | 931 MB
Classical | Label: Ondine, Official Digital Download

The first album of orchestral works by one of Latvia’s most prominent composers, Talivaldis Keninš (1919–2008), released in October 2020 has received a warm response from music critics around the world. This second volume by the Latvian National Symphony Orchestra under conductor Guntis Kuzma includes two symphonies from the 1970s alongside another concertante gem, Canzona Sonata for viola and string orchestra. Although born in Latvia, Keninš lived most of his life as an exile. He was educated in Paris, where he studied under Tony Aubin and Olivier Messiaen, and won several awards. Keninš emigrated to Canada in 1951 and became a respected pedagogue and a very influential figure in Canada’s music life. Alongside his pedagogic work he wrote a sizeable catalogue of works, including several symphonies and concertos. At first Keninš focused on writing works of chamber music and completed his first symphony relatively late, in 1959. During the 1970s and 80s, Keninš wrote several symphonies more becoming a major symphonist. The two symphonies included in this volume are compact orchestral scores from the 1970s. Symphony No. 4 is rich with its fine French orchestral textures, while Symphony No. 6 is an impressive symphonic work based on a fugue theme. The expressive Canzona Sonata for viola and string orchestra written in 1986 is a relatively late work and a wonderful example of the composer’s skills in writing concertante music.

TRACKLIST

01. Latvian National Symphony Orchestra & Guntis Kuzma - Symphony No. 4: I. —
02. Latvian National Symphony Orchestra & Guntis Kuzma - Symphony No. 4: II. —
03. Latvian National Symphony Orchestra & Guntis Kuzma - Symphony No. 6 "Sinfonia ad fugam"
04. Santa Vižine, Latvian National Symphony Orchestra & Guntis Kuzma - Canzona sonata for Viola & String Orchestra

foobar2000 1.6 / Dynamic Range Meter 1.1.1
log date: 2021-05-04 18:20:38

––––––––––––––––––––––––––––––––––––––––
Analyzed: Santa Vižine, Latvian National Symphony Orchestra & Guntis Kuzma / Ķeniņš: Symphonies Nos. 4 & 6 & Canzona sonata
––––––––––––––––––––––––––––––––––––––––

DR Peak RMS Duration Track
––––––––––––––––––––––––––––––––––––––––
DR18 -0.52 dB -25.48 dB 12:57 01-Kenins: Symphony No. 4: I. —
DR16 -1.54 dB -24.64 dB 10:24 02-Kenins: Symphony No. 4: II. —
DR16 -0.09 dB -23.78 dB 18:03 03-Kenins: Symphony No. 6 "Sinfonia ad fugam"
DR16 -4.32 dB -30.25 dB 11:26 04-Kenins: Canzona sonata for Viola & String Orchestra
––––––––––––––––––––––––––––––––––––––––

Number of tracks: 4
Official DR value: DR16

Samplerate: 96000 Hz
Channels: 2
Bits per sample: 24
Bitrate: 2379 kbps
Codec: FLAC
================================================================================



Thanks to the Original customer.