François-Frédéric Guy - Brahms: Complete Piano Sonatas (2016) [Official Digital Download]

Posted By: SERTiL
François-Frédéric Guy - Brahms: Complete Piano Sonatas (2016) [Official Digital Download]

François-Frédéric Guy - Brahms: Complete Piano Sonatas (2016)
FLAC (tracks) 24-bit/48 kHz | Time - 95:39 minutes | 774 MB
Studio Master, Official Digital Download | Artwork: Digital booklet

Brahms is one of François-Frederic Guy’s favourite composer, he has accompanied him all his life, the first work that he performed in public was his First Concerto. The Brahms Project is, above all, conceived as an amorous dictionary of the composer and not an exhaustive complete recording. It is organised around the piano, the veritable common denominator of an original itinerary combining chamber music, the Lied, the concertos and solo piano works. It proposes to take the listener on a journey to the heart of German Romanticism. Far from being presented as distinct bodies covering his entire creative life like Beethoven, Brahms's works with piano turn from sonatas into ballads, from variations into Klavierstücke, and include trios, quartets, quintet and concertos in keeping with his evolution, with form adapting to the novelty and richness of his intoxicating melodic inspiration. This seeming disparity is found in the works' dimensions. The three great, formidable sonatas, along with the two piano concertos are imposing monuments, whereas the Klavierstücke of the last period are presented as confidences, not to say intimate confessions. This piano, in turn abrupt and lilting, melodic and symphonic, is of such boldness and originality that it led Robert Schumann, upon hearing the first sketches of Brahms's sonatas, to hail 'the new prophet of German music!'

TRACKLIST

Johannes Brahms (1833-1897)

CD1
01. Piano Sonata No. 2 in F-Sharp Minor, Op. 2: I. Allegro non troppo (Ma energico)
02. Piano Sonata No. 2 in F-Sharp Minor, Op. 2: II. Andante con espressione
03. Piano Sonata No. 2 in F-Sharp Minor, Op. 2: III. Scherzo (Allegro)
04. Piano Sonata No. 2 in F-Sharp Minor, Op. 2: IV. Finale (Sostenuto - Allegro non troppo e rubato)
05. Piano Sonata No. 1 in C Major, Op. 1: I. Allegro
06. Piano Sonata No. 1 in C Major, Op. 1: II. Andante
07. Piano Sonata No. 1 in C Major, Op. 1: III. Scherzo (Allegro molto e con fuoco)
08. Piano Sonata No. 1 in C Major, Op. 1: IV. Finale (Allegro con fuoco)

CD2
01. Piano Sonata No. 3 in F Minor, Op. 5: I. Allegro maestoso
02. Piano Sonata No. 3 in F Minor, Op. 5: II. Andante (Andante espressivo)
03. Piano Sonata No. 3 in F Minor, Op. 5: III. Scherzo (Allegro energico)
04. Piano Sonata No. 3 in F Minor, Op. 5: IV. Intermezzo (Andante molto)
05. Piano Sonata No. 3 in F Minor, Op. 5: V. Finale (Allegro moderato ma rubato)

PERSONNEL
François-Frédéric Guy, piano

foobar2000 1.3.7 / Dynamic Range Meter 1.1.1
log date: 2017-10-18 12:19:57

––––––––––––––––––––––––––––––––––––––––
Analyzed: François-Frédéric Guy / Brahms: Complete Piano Sonatas
––––––––––––––––––––––––––––––––––––––––

DR Peak RMS Duration Track
––––––––––––––––––––––––––––––––––––––––
DR13 -0.31 dB -18.24 dB 6:06 01-Piano Sonata No. 2 in F-Sharp Minor, Op. 2: I. Allegro non troppo (Ma energico)
DR14 -1.53 dB -21.75 dB 5:24 02-Piano Sonata No. 2 in F-Sharp Minor, Op. 2: II. Andante con espressione
DR14 -1.70 dB -20.71 dB 3:57 03-Piano Sonata No. 2 in F-Sharp Minor, Op. 2: III. Scherzo (Allegro)
DR14 -1.22 dB -20.54 dB 11:44 04-Piano Sonata No. 2 in F-Sharp Minor, Op. 2: IV. Finale (Sostenuto - Allegro non troppo e rubato)
DR14 -0.56 dB -20.35 dB 11:37 05-Piano Sonata No. 1 in C Major, Op. 1: I. Allegro
DR17 -3.19 dB -27.78 dB 5:47 06-Piano Sonata No. 1 in C Major, Op. 1: II. Andante
DR13 -0.33 dB -18.66 dB 5:59 07-Piano Sonata No. 1 in C Major, Op. 1: III. Scherzo (Allegro molto e con fuoco)
DR13 -0.31 dB -19.21 dB 7:11 08-Piano Sonata No. 1 in C Major, Op. 1: IV. Finale (Allegro con fuoco)
DR14 -0.30 dB -20.94 dB 10:35 01-Piano Sonata No. 3 in F Minor, Op. 5: I. Allegro maestoso
DR17 -1.09 dB -25.34 dB 11:31 02-Piano Sonata No. 3 in F Minor, Op. 5: II. Andante (Andante espressivo)
DR14 -0.60 dB -20.00 dB 4:40 03-Piano Sonata No. 3 in F Minor, Op. 5: III. Scherzo (Allegro energico)
DR16 -0.31 dB -23.92 dB 3:33 04-Piano Sonata No. 3 in F Minor, Op. 5: IV. Intermezzo (Andante molto)
DR14 -0.77 dB -20.15 dB 7:40 05-Piano Sonata No. 3 in F Minor, Op. 5: V. Finale (Allegro moderato ma rubato)
––––––––––––––––––––––––––––––––––––––––

Number of tracks: 13
Official DR value: DR14

Samplerate: 48000 Hz
Channels: 2
Bits per sample: 24
Bitrate: 1160 kbps
Codec: FLAC
================================================================================


Thanks to the Original customer.