Hammock - Columbus (Original Motion Picture Soundtrack) (2017) [Official Digital Download]

Posted By: SERTiL
Hammock - Columbus (Original Motion Picture Soundtrack) (2017) [Official Digital Download]

Hammock - Columbus (Original Motion Picture Soundtrack) (2017)
FLAC (tracks) 24-bit/48 kHz | Time - 45:24 minutes | 414 MB
Studio Master, Official Digital Download | Artwork: Front Cover

Hammock’s original score for Kogonada’s award-winning film starring John Cho, Haley Lu Richardson, and Parker Posey. “Columbus” features world-renowned architecture from Columbus, Indiana, alongside a deeply intellectual storyline about family and parental relationships. Kogonada sought out Hammock to create the soundtrack after reading an interview with the band. “They were talking about the relationship between absence and presence in their music – which was a mind-blowing moment – and I thought, ‘They have to be the music for this film.’” The movie has been praised by The New York Times, Rolling Stone, Washington Post, The New Yorker, and Variety, and it has a Metacritic score of 89 out of 100, based on 25 critics, indicating “universal acclaim”, and a 97% rating on Rotten Tomatoes.

Tracklist:
01. Pei (03:53)
02. Meier (02:20)
03. Venturi (02:22)
04. Eliel (04:19)
05. Eero (02:23)
06. SOM (03:00)
07. Berke (01:38)
08. Polshek (01:47)
09. Warnecke (02:39)
10. Birkerts (01:14)
11. Weese (04:49)
12. Goldsmith (02:22)
13. Roche (01:39)
14. Valkenburgh (04:13)
15. Jimenez (02:30)
16. Saitowitz (04:20)

foobar2000 1.3.7 / Dynamic Range Meter 1.1.1
log date: 2017-11-06 14:03:46

––––––––––––––––––––––––––––––––––––––––
Analyzed: Hammock / Columbus (Original Motion Picture Soundtrack)
––––––––––––––––––––––––––––––––––––––––

DR Peak RMS Duration Track
––––––––––––––––––––––––––––––––––––––––
DR10 -0.20 dB -14.75 dB 3:53 01-Pei
DR10 -0.20 dB -13.42 dB 2:20 02-Meier
DR7 -0.20 dB -10.43 dB 2:22 03-Venturi
DR10 -0.20 dB -13.78 dB 4:19 04-Eliel
DR10 -0.32 dB -14.30 dB 2:23 05-Eero
DR10 -0.20 dB -12.08 dB 3:00 06-SOM
DR9 -0.20 dB -11.77 dB 1:38 07-Berke
DR8 -0.20 dB -12.90 dB 1:47 08-Polshek
DR10 -0.20 dB -14.48 dB 2:39 09-Warnecke
DR10 -0.20 dB -14.98 dB 1:14 10-Birkerts
DR11 -0.20 dB -14.13 dB 4:49 11-Weese
DR9 -0.20 dB -11.34 dB 2:22 12-Goldsmith
DR9 -0.50 dB -13.23 dB 1:39 13-Roche
DR9 -0.20 dB -14.94 dB 4:13 14-Valkenburgh
DR9 -0.20 dB -12.12 dB 2:30 15-Jimenez
DR7 -0.20 dB -11.67 dB 4:20 16-Saitowitz
––––––––––––––––––––––––––––––––––––––––

Number of tracks: 16
Official DR value: DR9

Samplerate: 48000 Hz
Channels: 2
Bits per sample: 24
Bitrate: 1144 kbps
Codec: FLAC
================================================================================


Thanks to the Original customer.