Tags
Language
Tags

Handel - Rodelinda (2021)

Posted By: v3122
Handel - Rodelinda (2021)

Handel - Rodelinda (2021)
FLAC (Tracks) 24-bit/96 & 192 kHz | Official Digital Download | Time: 03:19:35
Classical | Linn Records | Artwork: 13 Mb | ~ 3.90 or 7.64 Gb

~ Lucy Crowe, Iestyn Davies, Joshua Ellicott, Brandon Cedel, Jess Dandy, Tim Mead, The English Concert, Harry Bicket - Handel: Rodelinda ~

Handel’s 1725 hit opera Rodelinda was written for the greatest voices of its day and is performed here by some of today’s finest, as The English Concert and artistic director Harry Bicket’s acclaimed concert cycle of Handel operas appears for the first time on Linn.

Lucy Crowe and Iestyn Davies are the devoted partners Rodelinda and Bertarido, heading a cast packed with exactly the sort of vocal star-power Handel would have expected, including Joshua Ellicott, Tim Mead, Brandon Cedel and Jess Dandy. Both Davies and Crowe have won acclaim for their performances in these roles: BBC Music Magazine wrote, ‘Iestyn Davies stole the show with aria after aria of heavenly purity and ardour’, whilst BachTrack commented, ‘Lucy Crowe gave a brilliant performance … Her singing, firmly centred, agile and sparking with temperament, was a triumph.’

The English Concert’s reputation for combining urgency, passion and fire with precision, delicacy and beauty will ensure their forthcoming series of Handel operas will become an essential part of Linn’s catalogue. The English Concert will be releasing Handel’s La resurrezione in 2021.
Handel - Rodelinda (2021):

Tracklist:

ACT I
01. I. Ouverture (4:10)
02. II. Menuet (1:56)

Scene 1
03. Aria. Ho perduto il caro sposo (Rodelinda) (5:38)
04. Recitative. Regina! (Grimoaldo, Rodelinda) (0:59)
05. Aria. L’empio rigor del fato (Rodelinda) (4:33)

Scenes 2 & 3
06. Recitative. Duca, vedesti mai (Grimoaldo, Garibaldo, Eduige) (1:27)

Scene 3
07. Aria. Io già t’amai (Grimoaldo) (3:34)

Scene 4
08. Recitative. E tu dici d’amarmi? (Eduige, Garibaldo) (0:39)
09. Aria. Lo farò (Eduige) (3:41)

Scene 5
10. Recitative. Eduige, t’inganni (Garibaldo) (0:24)
11. Aria. Di Cupido impiego i vanni (Garibaldo) (5:07)

Scene 6
12. Sinfonia & Accompagnato. Pompe vane di morte (Bertarido) (2:19)
13. Aria. Dove sei, amato bene? (Bertarido) (5:06)
14. Recitative. Ma giunge Unulfo (Bertarido, Unulfo) (2:08)

Scene 7
15. Aria & Recitative. Ombre, piante, urne funeste (Rodelinda, Bertarido, Unu (6:05)

Scene 8
16. Recitative. Baci inutili e vani (Garibaldo, Bertarido, Unulfo, Rodelinda) (1:54)
17. Aria. Morrai, sì (Rodelinda) (4:23)

Scene 9
18. Recitative. E ben, duca, poss’io (Grimoaldo, Garibaldo) (0:41)
19. Aria. Se per te giungo a godere (Grimoaldo) (3:57)

Scene 10
20. Recitative. Unulfo, oh Dio! (Bertarido, Unulfo) (0:51)
21. Aria. Sono i colpi della sorte (Unulfo) (4:19)

Scene 11
22. Recitative. Sì, l’infida consorte (Bertarido) (0:23)
23. Aria. Confusa si miri (Bertarido) (4:41)

Act 2
Scenes 1 & 2
24. Recitative. Già perdesti, o signora (Garibaldo, Eduige, Rodelinda) (2:10)

Scene 2
25. Aria. De’ miei scherni (Eduige) (4:54)

Scene 3
26. Recitative. Rodelinda, è pur ver …? (Grimoaldo, Rodelinda, Unulfo, Gariba (2:00)
27. Aria. Spietati, io vi giurai (Rodelinda) (4:54)

Scene 4
28. Recitative. Unulfo, Garibaldo, in questo seno (Grimoaldo, Unulfo, Garibal (1:05)
29. Aria. Prigioniera ho l’alma in pena (Grimoaldo) (6:40)
30. Recitative. Massime così indegne (Unulfo, Garibaldo) (0:40)
31. Aria. Tirannia gli diede il regno (Garibaldo) (3:08)
32. Recitative. Sì, sì, fellon (Unulfo) (0:35)
33. Aria. Fra tempeste funeste (Unulfo) (5:12)

Scene 5
34. Aria & Recitative. Con rauco mormorio (Bertarido, Eduige) (6:32)
35. Recitative. Ah no, che non m’inganna (Eduige, Bertarido, Unulfo) (3:02)
36. Aria. Scacciata dal suo nido (Bertarido) (5:07)

Scene 6
37. Act 2 Recitative. Vive il mio sposo? (Rodelinda, Unulfo) (1:01)
38. Aria. Ritorna, o caro (Rodelinda) (4:24)

Scene 7
39. Recitative. Ah, sì! Ecco lo sposo (Rodelinda, Bertarido, Grimoaldo) (2:58)
40. Aria. Tuo drudo è mio rivale (Grimoaldo) (3:19)
41. Recitative. Non ti bastò, consorte (Rodelinda, Bertarido) (0:54)
42. Duet. Io t’abbraccio, e più che morte (Rodelinda, Bertarido) (7:37)

Act 3
Scene 1
43. Recitative. Del german nel periglio (Eduige, Unulfo) (1:40)
44. Aria. Un zeffiro spirò (Unulfo) (5:36)
45. Recitative. Con opra giusta (Eduige) (0:22)
46. Aria. Quanto più fiera (Eduige) (3:52)

Scene 2
47. Recitative. O falso è Bertarido (Garibaldo, Grimoaldo (1:25)
48. Aria. Tra sospetti (Grimoaldo) (4:26)

Scene 3
49. Aria, Accompagnato & Recitative. Chi di voi fu più infedele (Bertarido, U (6:04)

Scene 4
50. Recitative. Non temere (Eduige, Rodelinda) (1:52)
51. Aria. Se ’l mio duol non è sì forte (Rodelinda) (6:54)

Scene 5
52. Recitative. Amico, ah!, che a me duole (Bertarido, Unulfo) (1:03)
53. Aria. Se fiera belva ha cinto (Bertarido) (4:22)

Scene 6
54. Accompagnato. Fatto inferno è il mio petto (Grimoaldo) (2:58)
55. Aria. Pastorello d’un povero armento (Grimoaldo) (5:29)

Scenes 7 & 8
56. Recitative. Che miro? (Garibaldo, Grimoaldo, Bertarido, Rodelinda) (1:14)

Scene 8
57. Aria. Vivi, tiranno (Bertarido) (5:24)

Scene 8 & Final
58. Recitative. Dunque sei Bertarido? (Grimoaldo, Rodelinda, Un (1:37)

Final Scene
59. Aria. Mio caro, caro bene (Rodelinda) (4:01)
60. Recitative. Sposa, figlio (Bertarido) (0:33)
61. Duet & Chorus. D’ogni crudel martir (Rodelinda, Bertarido, Coro) (6:05)

Lucy Crowe (Rodelinda), soprano
Iestyn Davies (Bertarido), countertenor
Joshua Ellicott (Grimoaldo), tenor
Brandon Cedel (Garibaldo), bass
Jess Dandy (Eduige), contralto
Tim Mead (Unulfo), countertenor
The English Concert
Harry Bicket, director/harpsichord


foobar2000 1.6.6 / Dynamic Range Meter 1.1.1
log date: 2022-04-12 18:01:44

––––––––––––––––––––––––––––––––––––––––
Analyzed: The English Concert, Harry Bicket, Brandon Cedel, Jess Dandy / Handel: Rodelinda (1)
The English Concert, Harry Bicket, Brandon Cedel, Tim Mead / Handel: Rodelinda (2)
The English Concert, Harry Bicket, Brandon Cedel / Handel: Rodelinda (3-5)
The English Concert, Harry Bicket, Iestyn Davies, Jess Dandy, Tim Mead / Handel: Rodelinda (6)
The English Concert, Harry Bicket, Iestyn Davies, Jess Dandy / Handel: Rodelinda (7)
The English Concert, Harry Bicket, Iestyn Davies, Tim Mead / Handel: Rodelinda (8-11)
The English Concert, Harry Bicket, Iestyn Davies / Handel: Rodelinda (12-19)
The English Concert, Harry Bicket, Jess Dandy, Tim Mead / Handel: Rodelinda (20)
The English Concert, Harry Bicket, Jess Dandy / Handel: Rodelinda (21-24)
The English Concert, Harry Bicket, Joshua Ellicott, Brandon Cedel, Jess Dandy / Handel: Rodelinda (25)
The English Concert, Harry Bicket, Joshua Ellicott, Brandon Cedel, Tim Mead / Handel: Rodelinda (26)
The English Concert, Harry Bicket, Joshua Ellicott, Brandon Cedel / Handel: Rodelinda (27-28)
The English Concert, Harry Bicket, Joshua Ellicott / Handel: Rodelinda (29-35)
The English Concert, Harry Bicket, Lucy Crowe, Brandon Cedel, Jess Dandy / Handel: Rodelinda (36)
The English Concert, Harry Bicket, Lucy Crowe, Iestyn Davies, Brandon Cedel, Tim Mead / Handel: Rodelinda (37)
The English Concert, Harry Bicket, Lucy Crowe, Iestyn Davies, Joshua Ellicott, Brandon Cedel / Handel: Rodelinda (38)
The English Concert, Harry Bicket, Lucy Crowe, Iestyn Davies, Joshua Ellicott, Jess Dandy, Tim Mead / Handel: Rodelinda (39-40)
The English Concert, Harry Bicket, Lucy Crowe, Iestyn Davies, Joshua Ellicott / Handel: Rodelinda (41)
The English Concert, Harry Bicket, Lucy Crowe, Iestyn Davies, Tim Mead / Handel: Rodelinda (42)
The English Concert, Harry Bicket, Lucy Crowe, Iestyn Davies / Handel: Rodelinda (43-44)
The English Concert, Harry Bicket, Lucy Crowe, Jess Dandy / Handel: Rodelinda (45)
The English Concert, Harry Bicket, Lucy Crowe, Joshua Ellicott, Brandon Cedel, Tim Mead / Handel: Rodelinda (46)
The English Concert, Harry Bicket, Lucy Crowe, Joshua Ellicott / Handel: Rodelinda (47)
The English Concert, Harry Bicket, Lucy Crowe, Tim Mead / Handel: Rodelinda (48)
The English Concert, Harry Bicket, Lucy Crowe / Handel: Rodelinda (49-55)
The English Concert, Harry Bicket, Tim Mead / Handel: Rodelinda (56-59)
The English Concert, Harry Bicket / Handel: Rodelinda (60-61)
––––––––––––––––––––––––––––––––––––––––

DR Peak RMS Duration Track
––––––––––––––––––––––––––––––––––––––––
DR12 -5.53 dB -23.51 dB 0:39 08-Rodelinda, regina de’ Longobardi, HWV 19, Act 1 Scene 4: Recitative. E tu dici d’amarmi? (Eduige, Garibaldo)
DR12 -3.14 dB -19.60 dB 0:40 30-Rodelinda, regina de’ Longobardi, HWV 19, Act 2 Scene 4: Recitative. Massime così indegne (Unulfo, Garibaldo)
DR12 -6.78 dB -24.21 dB 0:24 10-Rodelinda, regina de’ Longobardi, HWV 19, Act 1 Scene 5: Recitative. Eduige, t’inganni (Garibaldo)
DR12 -2.05 dB -18.16 dB 5:07 11-Rodelinda, regina de’ Longobardi, HWV 19, Act 1 Scene 5: Aria. Di Cupido impiego i vanni (Garibaldo)
DR12 -0.29 dB -16.31 dB 3:08 31-Rodelinda, regina de’ Longobardi, HWV 19, Act 2 Scene 4: Aria. Tirannia gli diede il regno (Garibaldo)
DR13 -2.91 dB -22.06 dB 3:02 35-Rodelinda, regina de’ Longobardi, HWV 19, Act 2 Scene 5: Recitative. Ah no, che non m’inganna (Eduige, Bertarido, Unulfo)
DR13 -3.66 dB -21.62 dB 6:32 34-Rodelinda, regina de’ Longobardi, HWV 19, Act 2 Scene 5: Aria & Recitative. Con rauco mormorio (Bertarido, Eduige)
DR12 -6.36 dB -24.15 dB 2:08 14-Rodelinda, regina de’ Longobardi, HWV 19, Act 1 Scene 6: Recitative. Ma giunge Unulfo (Bertarido, Unulfo)
DR13 -5.70 dB -24.06 dB 0:51 20-Rodelinda, regina de’ Longobardi, HWV 19, Act 1 Scene 10: Recitative. Unulfo, oh Dio! (Bertarido, Unulfo)
DR13 -2.14 dB -18.88 dB 6:04 49-Rodelinda, regina de’ Longobardi, HWV 19, Act 3 Scene 3: Aria, Accompagnato & Recitative. Chi di voi fu più infedele (Bertarido, Unulfo)
DR12 -6.36 dB -22.61 dB 1:03 52-Rodelinda, regina de’ Longobardi, HWV 19, Act 3 Scene 5: Recitative. Amico, ah!, che a me duole (Bertarido, Unulfo)
DR12 -3.15 dB -20.16 dB 2:19 12-Rodelinda, regina de’ Longobardi, HWV 19, Act 1 Scene 6: Sinfonia & Accompagnato. Pompe vane di morte (Bertarido)
DR12 -2.03 dB -20.47 dB 5:06 13-Rodelinda, regina de’ Longobardi, HWV 19, Act 1 Scene 6: Aria. Dove sei, amato bene? (Bertarido)
DR11 -4.46 dB -18.45 dB 0:23 22-Rodelinda, regina de’ Longobardi, HWV 19, Act 1 Scene 11: Recitative. Sì, l’infida consorte (Bertarido)
DR13 -1.77 dB -19.05 dB 4:41 23-Rodelinda, regina de’ Longobardi, HWV 19, Act 1 Scene 11: Aria. Confusa si miri (Bertarido)
DR13 -3.29 dB -20.98 dB 5:07 36-Rodelinda, regina de’ Longobardi, HWV 19, Act 2 Scene 5: Aria. Scacciata dal suo nido (Bertarido)
DR14 -0.84 dB -18.18 dB 4:22 53-Rodelinda, regina de’ Longobardi, HWV 19, Act 3 Scene 5: Aria. Se fiera belva ha cinto (Bertarido)
DR12 -1.48 dB -16.68 dB 5:24 57-Rodelinda, regina de’ Longobardi, HWV 19, Act 3 Scene 8: Aria. Vivi, tiranno (Bertarido)
DR11 -6.38 dB -21.34 dB 0:33 60-Rodelinda, regina de’ Longobardi, HWV 19, Act 3 Final Scene: Recitative. Sposa, figlio (Bertarido)
DR13 -6.26 dB -24.28 dB 1:40 43-Rodelinda, regina de’ Longobardi, HWV 19, Act 3 Scene 1: Recitative. Del german nel periglio (Eduige, Unulfo)
DR13 -2.42 dB -19.74 dB 3:41 09-Rodelinda, regina de’ Longobardi, HWV 19, Act 1 Scene 4: Aria. Lo farò (Eduige)
DR13 -3.13 dB -19.39 dB 4:53 25-Rodelinda, regina de’ Longobardi, HWV 19, Act 2 Scene 2: Aria. De’ miei scherni (Eduige)
DR12 -8.68 dB -24.29 dB 0:22 45-Rodelinda, regina de’ Longobardi, HWV 19, Act 3 Scene 1: Recitative. Con opra giusta (Eduige)
DR12 -4.00 dB -19.69 dB 3:52 46-Rodelinda, regina de’ Longobardi, HWV 19, Act 3 Scene 1: Aria. Quanto più fiera (Eduige)
DR14 -6.07 dB -24.61 dB 1:27 06-Rodelinda, regina de’ Longobardi, HWV 19, Act 1 Scenes 2 & 3: Recitative. Duca, vedesti mai (Grimoaldo, Garibaldo, Eduige)
DR14 -5.74 dB -23.62 dB 1:05 28-Rodelinda, regina de’ Longobardi, HWV 19, Act 2 Scene 4: Recitative. Unulfo, Garibaldo, in questo seno (Grimoaldo, Unulfo, Garibaldo)
DR14 -5.88 dB -23.24 dB 0:41 18-Rodelinda, regina de’ Longobardi, HWV 19, Act 1 Scene 9: Recitative. E ben, duca, poss’io (Grimoaldo, Garibaldo)
DR14 -3.16 dB -21.55 dB 1:25 47-Rodelinda, regina de’ Longobardi, HWV 19, Act 3 Scene 2: Recitative. O falso è Bertarido (Garibaldo, Grimoaldo
DR13 -2.47 dB -18.58 dB 3:34 07-Rodelinda, regina de’ Longobardi, HWV 19, Act 1 Scene 3: Aria. Io già t’amai (Grimoaldo)
DR14 -3.48 dB -21.58 dB 3:57 19-Rodelinda, regina de’ Longobardi, HWV 19, Act 1 Scene 9: Aria. Se per te giungo a godere (Grimoaldo)
DR13 -3.57 dB -21.03 dB 6:40 29-Rodelinda, regina de’ Longobardi, HWV 19, Act 2 Scene 4: Aria. Prigioniera ho l’alma in pena (Grimoaldo)
DR13 -1.93 dB -18.57 dB 3:19 40-Rodelinda, regina de’ Longobardi, HWV 19, Act 2 Scene 7: Aria. Tuo drudo è mio rivale (Grimoaldo)
DR14 -1.41 dB -18.67 dB 4:26 48-Rodelinda, regina de’ Longobardi, HWV 19, Act 3 Scene 2: Aria. Tra sospetti (Grimoaldo)
DR14 -2.21 dB -21.18 dB 2:58 54-Rodelinda, regina de’ Longobardi, HWV 19, Act 3 Scene 6: Accompagnato. Fatto inferno è il mio petto (Grimoaldo)
DR15 -4.46 dB -25.04 dB 5:29 55-Rodelinda, regina de’ Longobardi, HWV 19, Act 3 Scene 6: Aria. Pastorello d’un povero armento (Grimoaldo)
DR13 -3.88 dB -22.37 dB 2:10 24-Rodelinda, regina de’ Longobardi, HWV 19, Act 2 Scenes 1 & 2: Recitative. Già perdesti, o signora (Garibaldo, Eduige, Rodelinda)
DR12 -1.45 dB -20.09 dB 1:54 16-Rodelinda, regina de’ Longobardi, HWV 19, Act 1 Scene 8: Recitative. Baci inutili e vani (Garibaldo, Bertarido, Unulfo, Rodelinda)
DR12 -2.02 dB -19.81 dB 1:14 56-Rodelinda, regina de’ Longobardi, HWV 19, Act 3 Scenes 7 & 8: Recitative. Che miro? (Garibaldo, Grimoaldo, Bertarido, Rodelinda)
DR14 -4.36 dB -23.99 dB 1:37 58-Rodelinda, regina de’ Longobardi, HWV 19, Act 3 Scene 8 & Final Scene: Recitative. Dunque sei Bertarido? (Grimoaldo, Rodelinda, Unulfo, Eduige, Bertarido)
DR11 -0.15 dB -14.70 dB 6:05 61-Rodelinda, regina de’ Longobardi, HWV 19, Act 3 Final Scene: Duet & Chorus. D’ogni crudel martir (Rodelinda, Bertarido, Coro)
DR14 -3.88 dB -21.79 dB 2:58 39-Rodelinda, regina de’ Longobardi, HWV 19, Act 2 Scene 7: Recitative. Ah, sì! Ecco lo sposo (Rodelinda, Bertarido, Grimoaldo)
DR11 -0.39 dB -17.35 dB 6:05 15-Rodelinda, regina de’ Longobardi, HWV 19, Act 1 Scene 7: Aria & Recitative. Ombre, piante, urne funeste (Rodelinda, Bertarido, Unulfo)
DR12 -5.85 dB -23.21 dB 0:54 41-Rodelinda, regina de’ Longobardi, HWV 19, Act 2 Scene 7: Recitative. Non ti bastò, consorte (Rodelinda, Bertarido)
DR13 -0.43 dB -18.17 dB 7:37 42-Rodelinda, regina de’ Longobardi, HWV 19, Act 2 Scene 7: Duet. Io t’abbraccio, e più che morte (Rodelinda, Bertarido)
DR13 -1.95 dB -19.12 dB 1:52 50-Rodelinda, regina de’ Longobardi, HWV 19, Act 3 Scene 4: Recitative. Non temere (Eduige, Rodelinda)
DR13 -2.46 dB -20.27 dB 2:00 26-Rodelinda, regina de’ Longobardi, HWV 19, Act 2 Scene 3: Recitative. Rodelinda, è pur ver …? (Grimoaldo, Rodelinda, Unulfo, Garibaldo)
DR13 -2.15 dB -20.79 dB 0:59 04-Rodelinda, regina de’ Longobardi, HWV 19, Act 1 Scene 1: Recitative. Regina! (Grimoaldo, Rodelinda)
DR12 -3.66 dB -20.44 dB 1:01 37-Rodelinda, regina de’ Longobardi, HWV 19, Act 2 Scene 6: Recitative. Vive il mio sposo? (Rodelinda, Unulfo)
DR12 -0.17 dB -17.79 dB 5:38 03-Rodelinda, regina de’ Longobardi, HWV 19, Act 1 Scene 1: Aria. Ho perduto il caro sposo (Rodelinda)
DR12 -0.34 dB -16.15 dB 4:33 05-Rodelinda, regina de’ Longobardi, HWV 19, Act 1 Scene 1: Aria. L’empio rigor del fato (Rodelinda)
DR11 -0.20 dB -15.88 dB 4:23 17-Rodelinda, regina de’ Longobardi, HWV 19, Act 1 Scene 8: Aria. Morrai, sì (Rodelinda)
DR11 -0.41 dB -14.74 dB 4:54 27-Rodelinda, regina de’ Longobardi, HWV 19, Act 2 Scene 3: Aria. Spietati, io vi giurai (Rodelinda)
DR12 -0.31 dB -16.74 dB 4:24 38-Rodelinda, regina de’ Longobardi, HWV 19, Act 2 Scene 6: Aria. Ritorna, o caro (Rodelinda)
DR13 -0.39 dB -17.64 dB 6:54 51-Rodelinda, regina de’ Longobardi, HWV 19, Act 3 Scene 4: Aria. Se ’l mio duol non è sì forte (Rodelinda)
DR11 -0.13 dB -15.51 dB 4:01 59-Rodelinda, regina de’ Longobardi, HWV 19, Act 3 Final Scene: Aria. Mio caro, caro bene (Rodelinda)
DR13 -2.51 dB -19.31 dB 4:19 21-Rodelinda, regina de’ Longobardi, HWV 19, Act 1 Scene 10: Aria. Sono i colpi della sorte (Unulfo)
DR12 -9.26 dB -24.18 dB 0:35 32-Rodelinda, regina de’ Longobardi, HWV 19, Act 2 Scene 4: Recitative. Sì, sì, fellon (Unulfo)
DR12 -5.17 dB -19.72 dB 5:12 33-Rodelinda, regina de’ Longobardi, HWV 19, Act 2 Scene 4: Aria. Fra tempeste funeste (Unulfo)
DR12 -6.55 dB -21.07 dB 5:36 44-Rodelinda, regina de’ Longobardi, HWV 19, Act 3 Scene 1: Aria. Un zeffiro spirò (Unulfo)
DR12 -5.67 dB -20.50 dB 4:10 01-Rodelinda, regina de’ Longobardi, HWV 19: I. Ouverture
DR11 -8.77 dB -22.83 dB 1:56 02-Rodelinda, regina de’ Longobardi, HWV 19: II. Menuet
––––––––––––––––––––––––––––––––––––––––

Number of tracks: 61
Official DR value: DR12
Samplerate: 192000 Hz
Channels: 2
Bits per sample: 24
Bitrate: 5315 kbps
Codec: FLAC

All thanks go to the original releaser

Download Handel - Rodelinda (2021):