Tags
Language
Tags

Handel and Haydn Society - Haydn - Symphony No. 100 & Nelson Mass (Live) (2020) [Official Digital Download 24/96]

Posted By: pyatak
Handel and Haydn Society - Haydn - Symphony No. 100 & Nelson Mass (Live) (2020) [Official Digital Download 24/96]

Handel and Haydn Society - Haydn - Symphony No. 100 & Nelson Mass (Live) (2020) [Official Digital Download 24/96]
FLAC (tracks) 24-bit/96 kHz | Front Cover | Time - 64:37 minutes | 1,17 GB
Classical | Label: CORO, Official Digital Download

Experience two grand classics, alive with all the excitement and verve of their very first performances. Thrill to one of Haydn’s masterful ‘London’ symphonies that wowed England’s capital – the smash hit ‘Military’, so-called for intense depictions of the clash of arms and ferocious roar of war. In the epic Lord Nelson Mass Handel and Haydn Society's magnificent chorus and soloists join the orchestra in this homage to the heroic admiral who helped vanquish Napoleon.

TRACKLIST

1. Handel and Haydn Society - Symphony No. 100 in G Major, Hob. I:100 "Military": I. Adagio – Allegro
2. Handel and Haydn Society - Symphony No. 100 in G Major, Hob. I:100 "Military": II. Allegretto
3. Handel and Haydn Society - Symphony No. 100 in G Major, Hob. I:100 "Military": III. Menuet & Trio - Moderato
4. Handel and Haydn Society - Symphony No. 100 in G Major, Hob. I:100 "Military": IV. Finale - Presto
5. Mary Bevan - Missa in angustiis, Hob. XXII:11 "Nelson Mass": Kyrie
6. Mary Bevan - Missa in angustiis, Hob. XXII:11 "Nelson Mass": Gloria in excelsis deo
7. Sumner Thompson - Missa in angustiis, Hob. XXII:11 "Nelson Mass": Qui tollis
8. Mary Bevan - Missa in angustiis, Hob. XXII:11 "Nelson Mass": Quoniam tu solus sanctus
9. Handel and Haydn Society - Missa in angustiis, Hob. XXII:11 "Nelson Mass": Credo in unum Deum
10. Mary Bevan - Missa in angustiis, Hob. XXII:11 "Nelson Mass": Et incarnatus est
11. Mary Bevan - Missa in angustiis, Hob. XXII:11 "Nelson Mass": Et resurrexit
12. Handel and Haydn Society - Missa in angustiis, Hob. XXII:11 "Nelson Mass": Sanctus
13. Mary Bevan - Missa in angustiis, Hob. XXII:11 "Nelson Mass": Benedictus
14. Mary Bevan - Missa in angustiis, Hob. XXII:11 "Nelson Mass": Agnus Dei qui tollis
15. Handel and Haydn Society - Missa in angustiis, Hob. XXII:11 "Nelson Mass": Dona nobis pacem

foobar2000 1.6.2 / Dynamic Range Meter 1.1.1
log date: 2021-01-05 19:41:45

––––––––––––––––––––––––––––––––––––––––
Analyzed: Handel and Haydn Society / Haydn: Symphony No. 100 & Nelson Mass (Live) (1-7)
Mary Bevan / Haydn: Symphony No. 100 & Nelson Mass (Live) (8-14)
Sumner Thompson / Haydn: Symphony No. 100 & Nelson Mass (Live) (15)
––––––––––––––––––––––––––––––––––––––––

DR Peak RMS Duration Track
––––––––––––––––––––––––––––––––––––––––
DR14 -1.09 dB -20.90 dB 8:02 01-Symphony No. 100 in G Major, Hob. I:100 "Military": I. Adagio – Allegro
DR14 -0.33 dB -20.40 dB 5:25 02-Symphony No. 100 in G Major, Hob. I:100 "Military": II. Allegretto
DR14 -3.16 dB -22.01 dB 5:45 03-Symphony No. 100 in G Major, Hob. I:100 "Military": III. Menuet & Trio - Moderato
DR14 -0.33 dB -19.80 dB 5:35 04-Symphony No. 100 in G Major, Hob. I:100 "Military": IV. Finale - Presto
DR13 -0.57 dB -19.10 dB 1:37 09-Missa in angustiis, Hob. XXII:11 "Nelson Mass": Credo in unum Deum
DR13 -1.08 dB -19.97 dB 2:20 12-Missa in angustiis, Hob. XXII:11 "Nelson Mass": Sanctus
DR13 -0.30 dB -18.96 dB 2:51 15-Missa in angustiis, Hob. XXII:11 "Nelson Mass": Dona nobis pacem
DR13 -0.30 dB -17.96 dB 4:57 05-Missa in angustiis, Hob. XXII:11 "Nelson Mass": Kyrie
DR13 -0.30 dB -19.43 dB 3:46 06-Missa in angustiis, Hob. XXII:11 "Nelson Mass": Gloria in excelsis deo
DR13 -0.30 dB -18.74 dB 3:00 08-Missa in angustiis, Hob. XXII:11 "Nelson Mass": Quoniam tu solus sanctus
DR14 -0.31 dB -24.51 dB 4:09 10-Missa in angustiis, Hob. XXII:11 "Nelson Mass": Et incarnatus est
DR13 -0.30 dB -18.30 dB 3:55 11-Missa in angustiis, Hob. XXII:11 "Nelson Mass": Et resurrexit
DR13 -0.30 dB -20.23 dB 6:19 13-Missa in angustiis, Hob. XXII:11 "Nelson Mass": Benedictus
DR12 -6.86 dB -25.99 dB 2:48 14-Missa in angustiis, Hob. XXII:11 "Nelson Mass": Agnus Dei qui tollis
DR14 -3.64 dB -25.01 dB 4:15 07-Missa in angustiis, Hob. XXII:11 "Nelson Mass": Qui tollis
––––––––––––––––––––––––––––––––––––––––

Number of tracks: 15
Official DR value: DR13

Samplerate: 96000 Hz
Channels: 2
Bits per sample: 24
Bitrate: 2484 kbps
Codec: FLAC
================================================================================



Thanks to the Original customer.