Max Emanuel Cencic, Armonia Atenea - Hasse: Siroe - Re Di Persia (2014) [Official Digital Download 24/88]

Posted By: SERTiL
Max Emanuel Cencic, Armonia Atenea - Hasse: Siroe - Re Di Persia (2014) [Official Digital Download 24/88]

Max Emanuel Cencic, Armonia Atenea - Hasse: Siroe - Re Di Persia (2014)
FLAC (tracks) 24-bit/96 kHz | Time - 166:01 minutes | 3.02 GB
Studio Master, Official Digital Download | Artwork: Digital Booklet

The world-premiere recording of Siroe re di Persia by Johann Adolf Hasse, whose music encapsulates the refined aristocratic cultural tastes of the European Ancien Régime. Offering true musical fireworks and delights, Siroe is led by Max Cencic in the title role with the vital orchestra of Armonia Atenea and their high-powered conductor, George Petrou: the same vibrant partnership which saw their first album on Decca, Handel’s Alessandro, win a clutch of top awards. Renowned for his gifts as a melodist, in Siroe Hasse offers a feast of rare vocal delights in the telling of a vivid story of passion, jealousy and intrigue.

Cencic is supported by a truly stunning cast, with Decca’s award-winning Julia Lezhneva, countertenor Franco Fagioli (whose own debut album on DG will come soon), Juan Sancho, Mary-Ellen Nesi, and Lauren Snouffer.

Remarkably famous during his lifetime, the composer Hasse was acclaimed by his contemporaries as one of the most important artists of the 18th Century: the greatest singers of the time clamoured to perform in his operas.

Max Cencic & Parnassus Arts’ new stage production of Siroe premiered in June 2014 at Athens’ Megaron to enthusiastic acclaim from audience and critics alike, and will tour to Versailles and Vienna.

Tracklist:

Johann Adolph Hasse (1699-1783)

CD1
01. I Vivace e staccato
02. II Un poco lento
03. III
04. Recitativo accompagnato: Figli, di voi non meno che del
05. N.1 Aria: Se il mio paterno amore Cosroe
06. Recitativo: E puoi senza arrossirti fissar, Medarse, in sul mio volto i lumi?
07. N.2 Aria: D ogni amator la fede Emira
08. Recitativo: Siroe, non parli? Laodice, Siroe
09. N.3 Aria: O placido il mare lusinghi la sponda Laodice
10. Recitativo: Non tradirò per lei l amicizia e il dover Arasse
11. N.4 Aria: Contente non siete d un povero core Arasse
12. Recitativo: Dall insidie d Emira si tolga il genitor Siroe
13. N.5 Aria: La sorte mia tiranna Siroe
14. Recitativo: Olà, s osservi il prence Cosroe
15. N.6 Aria: Fra l orror della tempesta Medarse
16. Recitativo: Alfin, Laodice, sei vendicata Siroe, Laodice
17. N.7 Aria: Mi lagnerò tacendo Laodice
18. Recitativo: Tutto si soffra in pace Siroe, Emira
19. N.8 Aria: Mi credi infedele Siroe
20. Recitativo: Pensoso è il re Emira, Cosroe
21. N.9 Aria: Sgombra dall anima tutto il timor Emira
22. Recitativo: Non è picciola sorte Medarse, Cosroe
23. N.10 Aria: Tu decidi del mio fato Medarse

CD2
01. Recitativo: Mi basta di morir noto a me stesso Siroe, Arasse
02. N.11 Aria: Se pugnar non sai col fato Arasse
03. Recitativo: Veglia all ingresso Cosroe, Emira, Siroe
04. N.12 Aria: Tu di pietà mi spogli Cosroe
05. Recitativo: Che risolver degg io? Siroe, Emira, Laodice
06. N.13 Aria: Fra dubbi affetti miei Siroe
07. Recitativo (ed Accompagnato): A costei che dirò? Emira, Laodice
08. N.14 Aria: Non vi piacque, ingiusti dei Emira
09. Recitativo: No no; voglio che mora Cosroe, Arasse
10. N.15 Aria: Se il caro figlio vede in periglio Laodice
11. Recitativo: Rendi, o signore Emira, Cosroe
12. N.16 Aria: Che furia, che mostro Emira
13. Recitativo: Ah, che ristoro invano io cerco al mio dolor Cosroe
14. N.17 Aria: Gelido in ogni vena scorrer mi sento il sangue Cosroe
15. Recitativo: Che fai, d un re tiranno più barbaro ministro?
16. N.18 Aria: L alma a goder prepara Arasse
17. Recitativo: Tutto è in tumulto Medarse, Emira, Arasse
18. Recitativo accompagnato: Son stanco, ingiusti Numi di soffrir Siroe
19. Aria: Vo disperato a morte Siroe
20. Recitativo: Ad insultarmi ancora qui vien Medarse?
21. N.19 Aria: Se l amor tuo mi rendi Siroe
22. Recitativo: Ah con mio danno imparo che la più certa guida
23. N.20 Aria: Torrente cresciuto per torbida piena Medarse
24. Recitativo: Vinto ancor non son io Cosroe, Emira, Siroe
25. Recitativo: Di tuo amor, mio cor è indegno Emira
26. Recitativo: Ecco, Persia, il tuo re Cosroe
27. N.21 Coro: I suoi nemici affetti Tutti

Personnel:
Max Emanuel Cencic (Siroe)
Franco Fagioli (Medarse)
Julia Lezhneva (Laodice)
Juan Sancho (Cosroe)
Mary-Ellen Nesi (Emira)
Laureen Snouffer (Arasse)
Armonia Atenea
George Petrou, Dirigent

foobar2000 1.3.7 / Dynamic Range Meter 1.1.1
log date: 2018-01-06 12:19:03

––––––––––––––––––––––––––––––––––––––––
Analyzed: Max Emanuel Cencic, Armonia Atenea, George Petrou, Julia Lezhneva, Mary-Ellen Nesi, Lauren Snouffer, Juan Sancho, Franco Fagioli / Hasse: Siroe - Re Di Persia
––––––––––––––––––––––––––––––––––––––––

DR Peak RMS Duration Track
––––––––––––––––––––––––––––––––––––––––
DR12 -4.65 dB -19.91 dB 2:02 01-I Vivace e staccato
DR12 -7.82 dB -24.97 dB 2:12 02-II Un poco lento
DR13 -2.50 dB -20.82 dB 1:52 03-III
DR15 -0.49 dB -20.05 dB 3:57 04-Recitativo accompagnato: Figli, di voi non meno che del
DR13 0.00 dB -17.43 dB 4:42 05-N.1 Aria: Se il mio paterno amore Cosroe
DR15 -2.18 dB -23.31 dB 2:14 06-Recitativo: E puoi senza arrossirti fissar, Medarse, in sul mio volto i lumi?
DR14 0.00 dB -17.27 dB 4:54 07-N.2 Aria: D ogni amator la fede Emira
DR15 -4.81 dB -23.38 dB 1:44 08-Recitativo: Siroe, non parli? Laodice, Siroe
DR12 0.00 dB -14.49 dB 5:01 09-N.3 Aria: O placido il mare lusinghi la sponda Laodice
DR14 -6.75 dB -25.37 dB 0:49 10-Recitativo: Non tradirò per lei l amicizia e il dover Arasse
DR13 0.00 dB -16.94 dB 5:50 11-N.4 Aria: Contente non siete d un povero core Arasse
DR16 -1.13 dB -21.66 dB 3:54 12-Recitativo: Dall insidie d Emira si tolga il genitor Siroe
DR13 0.00 dB -16.88 dB 6:14 13-N.5 Aria: La sorte mia tiranna Siroe
DR13 -4.12 dB -21.92 dB 1:47 14-Recitativo: Olà, s osservi il prence Cosroe
DR12 0.00 dB -15.10 dB 5:47 15-N.6 Aria: Fra l orror della tempesta Medarse
DR14 -1.32 dB -22.86 dB 1:37 16-Recitativo: Alfin, Laodice, sei vendicata Siroe, Laodice
DR13 0.00 dB -17.70 dB 7:45 17-N.7 Aria: Mi lagnerò tacendo Laodice
DR15 -1.35 dB -21.55 dB 1:52 18-Recitativo: Tutto si soffra in pace Siroe, Emira
DR14 0.00 dB -17.45 dB 3:39 19-N.8 Aria: Mi credi infedele Siroe
DR13 -4.03 dB -25.10 dB 1:22 20-Recitativo: Pensoso è il re Emira, Cosroe
DR13 -0.01 dB -17.81 dB 4:20 21-N.9 Aria: Sgombra dall anima tutto il timor Emira
DR14 -6.54 dB -24.49 dB 1:29 22-Recitativo: Non è picciola sorte Medarse, Cosroe
DR13 -1.09 dB -18.65 dB 8:50 23-N.10 Aria: Tu decidi del mio fato Medarse
DR14 -8.47 dB -26.29 dB 0:27 01-Recitativo: Mi basta di morir noto a me stesso Siroe, Arasse
DR12 0.00 dB -15.82 dB 7:29 02-N.11 Aria: Se pugnar non sai col fato Arasse
DR17 -1.53 dB -22.51 dB 3:13 03-Recitativo: Veglia all ingresso Cosroe, Emira, Siroe
DR13 0.00 dB -16.06 dB 3:10 04-N.12 Aria: Tu di pietà mi spogli Cosroe
DR14 -2.04 dB -21.46 dB 1:16 05-Recitativo: Che risolver degg io? Siroe, Emira, Laodice
DR13 0.00 dB -17.64 dB 4:58 06-N.13 Aria: Fra dubbi affetti miei Siroe
DR14 -1.15 dB -21.41 dB 2:35 07-Recitativo (ed Accompagnato): A costei che dirò? Emira, Laodice
DR14 -0.02 dB -19.37 dB 6:22 08-N.14 Aria: Non vi piacque, ingiusti dei Emira
DR14 -2.02 dB -19.56 dB 1:49 09-Recitativo: No no; voglio che mora Cosroe, Arasse
DR12 0.00 dB -15.84 dB 3:23 10-N.15 Aria: Se il caro figlio vede in periglio Laodice
DR14 -1.18 dB -19.92 dB 3:49 11-Recitativo: Rendi, o signore Emira, Cosroe
DR12 0.00 dB -15.46 dB 3:04 12-N.16 Aria: Che furia, che mostro Emira
DR16 -5.68 dB -30.95 dB 0:46 13-Recitativo: Ah, che ristoro invano io cerco al mio dolor Cosroe
DR14 -1.41 dB -20.02 dB 8:00 14-N.17 Aria: Gelido in ogni vena scorrer mi sento il sangue Cosroe
DR14 -2.19 dB -22.42 dB 0:56 15-Recitativo: Che fai, d un re tiranno più barbaro ministro?
DR13 -0.01 dB -17.03 dB 5:04 16-N.18 Aria: L alma a goder prepara Arasse
DR13 -3.78 dB -20.12 dB 0:43 17-Recitativo: Tutto è in tumulto Medarse, Emira, Arasse
DR14 -1.20 dB -22.78 dB 1:25 18-Recitativo accompagnato: Son stanco, ingiusti Numi di soffrir Siroe
DR11 0.00 dB -15.96 dB 3:36 19-Aria: Vo disperato a morte Siroe
DR14 -3.04 dB -22.22 dB 1:50 20-Recitativo: Ad insultarmi ancora qui vien Medarse?
DR13 0.00 dB -17.71 dB 3:40 21-N.19 Aria: Se l amor tuo mi rendi Siroe
DR12 -8.54 dB -25.27 dB 0:49 22-Recitativo: Ah con mio danno imparo che la più certa guida
DR12 -1.62 dB -17.59 dB 4:13 23-N.20 Aria: Torrente cresciuto per torbida piena Medarse
DR14 -3.75 dB -22.69 dB 1:33 24-Recitativo: Vinto ancor non son io Cosroe, Emira, Siroe
DR11 0.00 dB -14.50 dB 6:21 25-Recitativo: Di tuo amor, mio cor è indegno Emira
DR11 -3.52 dB -19.51 dB 0:49 26-Recitativo: Ecco, Persia, il tuo re Cosroe
DR12 0.00 dB -15.18 dB 1:14 27-N.21 Coro: I suoi nemici affetti Tutti
––––––––––––––––––––––––––––––––––––––––

Number of tracks: 50
Official DR value: DR13

Samplerate: 96000 Hz
Channels: 2
Bits per sample: 24
Bitrate: 2595 kbps
Codec: FLAC
================================================================================


Thanks to the Original customer.