Tags
Language
Tags

Le Concert de la Loge & Julien Chauvin - Haydn : Symphony No. 82 "L'Ours" (2018) [Official Digital Download 24/96]

Posted By: SERTiL
Le Concert de la Loge & Julien Chauvin - Haydn : Symphony No. 82 "L'Ours" (2018) [Official Digital Download 24/96]

Le Concert de la Loge & Julien Chauvin - Haydn : Symphony No. 82 "L'Ours" (2018)
FLAC (tracks) 24-bit/96 kHz | Time - 64:34 minutes | 1.08 GB
Studio Master, Official Digital Download | Artwork: Digital Booklet

The well-known Concert de la Loge, the period-instruments orchestra led by the violinist Julien Chauvin, comes back with the third episode of Haydn’s journey in Paris. His complete Parisian Symphonies recording continues this fall with the number 82 nicknamed “The Bear”. It is coupled with the Symphonie concertante for bassoon, horn, flute and oboe of one of his contemporaries, François Devienne.

This colorful third volume draws a witty and virtuoso panorama of French 18th century music.

Tracklist:
1. Symphony No. 82 in C Major, Hob.I:82 ‘The Bear’ : I. Vivace 07:52
2. Symphony No. 82 in C Major, Hob.I:82 ‘The Bear’ : II. Allegretto 06:36
3. Symphony No. 82 in C Major, Hob.I:82 ‘The Bear’ : III. Menuet. Trio 03:29
4. Symphony No. 82 in C Major, Hob.I:82 ‘The Bear’ : IV. Finale. Vivace assai 05:07
5. Symphonie concertante mêlée d'airs patriotiques pour deux violons principaux : I. Allegro moderato 09:54
6. Symphonie concertante mêlée d'airs patriotiques pour deux violons principaux : II. Adagio un poco andante 04:20
7. Symphonie concertante mêlée d'airs patriotiques pour deux violons principaux : III. Allegro moderato 06:13
8. Symphonie concertante No. 4 en fa majeur pour flûte, hautbois, basson et cor : I. Allegro 13:05
9. Symphonie concertante No. 4 en fa majeur pour flûte, hautbois, basson et cor : II. Air varié 07:58

Personnel:
Le Concert de la Loge
Julien Chauvin, violin, direction

foobar2000 1.3.7 / Dynamic Range Meter 1.1.1
log date: 2018-09-14 16:03:52

––––––––––––––––––––––––––––––––––––––––
Analyzed: Le Concert de la Loge / Haydn : Symphony No. 82 "L'Ours"
––––––––––––––––––––––––––––––––––––––––

DR Peak RMS Duration Track
––––––––––––––––––––––––––––––––––––––––
DR13 -0.30 dB -17.10 dB 7:53 01-Symphony No. 82 in C Major, Hob.I-82 ‘The Bear’ - I. Vivace
DR13 -0.53 dB -19.95 dB 6:36 02-Symphony No. 82 in C Major, Hob.I-82 ‘The Bear’ - II. Allegretto
DR14 -0.32 dB -19.46 dB 3:29 03-Symphony No. 82 in C Major, Hob.I-82 ‘The Bear’ - III. Menuet. Trio
DR13 -0.30 dB -17.42 dB 5:07 04-Symphony No. 82 in C Major, Hob.I-82 ‘The Bear’ - IV. Finale. Vivace assai
DR13 -0.30 dB -17.67 dB 9:54 05-Symphonie concertante melee d'airs patriotiques pour deux violons principaux - I. Allegro moderato
DR14 -4.91 dB -23.04 dB 4:21 06-Symphonie concertante melee d'airs patriotiques pour deux violons principaux - II. Adagio un poco andante
DR13 -0.30 dB -18.00 dB 6:13 07-Symphonie concertante melee d'airs patriotiques pour deux violons principaux - III. Allegro moderato
DR15 -0.41 dB -20.08 dB 13:05 08-Symphonie concertante No. 4 en fa majeur pour flute, hautbois, basson et cor - I. Allegro
DR14 -0.30 dB -19.25 dB 7:58 09-Symphonie concertante No. 4 en fa majeur pour flute, hautbois, basson et cor - II. Air varie
––––––––––––––––––––––––––––––––––––––––

Number of tracks: 9
Official DR value: DR14

Samplerate: 96000 Hz
Channels: 2
Bits per sample: 24
Bitrate: 2335 kbps
Codec: FLAC
================================================================================


Thanks to the Original customer.