Tommy Emmanuel & John Knowles - Heart Songs (2019) [Official Digital Download]

Posted By: SERTiL
Tommy Emmanuel & John Knowles - Heart Songs (2019) [Official Digital Download]

Tommy Emmanuel & John Knowles - Heart Songs (2019)
FLAC (tracks) 24-bit/44.1 kHz | Time - 47:04 minutes | 470 MB
Studio Master, Official Digital Download | Artwork: Front Cover

On Heart Songs two of the world's greatest guitarists, Tommy Emmanuel and John Knowles, make this clear. Both are masters of their instrument, honored by the iconic Chet Atkins with the rare designation of CGP (Certified Guitar Players). Emmanuel has twice been voted "Best Acoustic Guitarist" by readers of Guitar Player Magazine and honored as both a "Member of the Order of Australia" and an official "Kentucky Colonel". Knowles is a Grammy winner, a member of the National Thumb Picker's Hall of Fame, and editor of the respected FingerStyle Quarterly.

Tracklist:
1. Cold, Cold Heart 04:21
2. How Deep Is Your Love 03:14
3. I Can't Stop Loving You 03:28
4. Somewhere 03:32
5. I Can Let Go Now 03:08
6. Lullabye (Good Night, My Angel) 03:45
7. After Paris 02:02
8. Walkin' My Baby Back Home 02:37
9. I Can't Make You Love Me 03:48
10. Where Is Love 03:09
11. He Ain't Heavy, He's My Brother 03:46
12. Eva Waits 04:19
13. Turning Home (Live) 02:22
14. How Deep Is Your Love (Live) 03:33

foobar2000 1.3.7 / Dynamic Range Meter 1.1.1
log date: 2019-01-11 18:10:31

––––––––––––––––––––––––––––––––––––––––
Analyzed: Tommy Emmanuel & John Knowles / Heart Songs
––––––––––––––––––––––––––––––––––––––––

DR Peak RMS Duration Track
––––––––––––––––––––––––––––––––––––––––
DR12 -1.26 dB -16.78 dB 4:21 01-Cold, Cold Heart
DR12 -2.03 dB -15.59 dB 3:15 02-How Deep Is Your Love
DR11 -0.68 dB -14.02 dB 3:28 03-I Can't Stop Loving You
DR12 -1.00 dB -14.85 dB 3:32 04-Somewhere
DR13 -0.95 dB -16.94 dB 3:08 05-I Can Let Go Now
DR12 -2.75 dB -17.37 dB 3:45 06-Lullabye (Good Night, My Angel)
DR12 -1.85 dB -15.76 dB 2:02 07-After Paris
DR12 -1.83 dB -16.75 dB 2:37 08-Walkin' My Baby Back Home
DR12 -1.13 dB -16.84 dB 3:49 09-I Can't Make You Love Me
DR12 -1.13 dB -17.56 dB 3:09 10-Where Is Love
DR11 -1.87 dB -15.48 dB 3:47 11-He Ain't Heavy, He's My Brother
DR13 -1.15 dB -16.59 dB 4:20 12-Eva Waits
DR12 -1.02 dB -15.39 dB 2:23 13-Turning Home (Live)
DR12 -1.02 dB -15.01 dB 3:34 14-How Deep Is Your Love (Live)
––––––––––––––––––––––––––––––––––––––––

Number of tracks: 14
Official DR value: DR12

Samplerate: 44100 Hz
Channels: 2
Bits per sample: 24
Bitrate: 1401 kbps
Codec: FLAC
================================================================================


Thanks to the Original customer.