Tags
Language
Tags

Honeyblood - In Plain Sight (2019) [Official Digital Download]

Posted By: pyatak
Honeyblood - In Plain Sight (2019) [Official Digital Download]

Honeyblood - In Plain Sight (2019) [Official Digital Download]
FLAC (tracks) 24-bit/44.1 kHz | Front Cover | Time - 36:00 minutes | 419 MB
Alternative Rock, Indie Rock | Label: Marathon Artists, Official Digital Download

Digipack with clear tray and tube pocket. 2019 release from the Scottish indie rock project led by guitarst/singer/songwriter Stina Tweeddale. Honeyblood's third album sees Stina Tweeddale finding her most ambitious form and steely focus yet. Three albums in she has stepped forward to finally claim the mantle of the project she birthed seven years ago as a her sole vision. Stina takes the reigns in collaboration with none-other than super-producer John Congleton (Angel Olsen, St Vincent) for the most definitive Honeyblood album to date, consolidating the Glasgow-born band as one of the most important UK names.

TRACKLIST

1. She's a Nightmare
2. The Third Degree
3. A Kiss from the Devil
4. Gibberish
5. The Tarantella
6. Take the Wheel
7. Touch
8. Glimmer
9. You're a Trick
10. Twisting the Aces
11. Harmless

foobar2000 1.3.16 / Dynamic Range Meter 1.1.1
log date: 2019-05-24 07:03:37

––––––––––––––––––––––––––––––––––––––––
Analyzed: Honeyblood / In Plain Sight
––––––––––––––––––––––––––––––––––––––––

DR Peak RMS Duration Track
––––––––––––––––––––––––––––––––––––––––
DR5 -0.40 dB -7.75 dB 3:53 01-She's a Nightmare
DR5 -0.40 dB -6.91 dB 2:54 02-The Third Degree
DR6 -0.40 dB -8.44 dB 3:02 03-A Kiss from the Devil
DR6 -0.40 dB -7.93 dB 2:31 04-Gibberish
DR7 -0.40 dB -10.16 dB 3:19 05-The Tarantella
DR6 -0.41 dB -7.52 dB 3:05 06-Take the Wheel
DR7 -0.41 dB -8.42 dB 3:25 07-Touch
DR6 -0.40 dB -7.99 dB 3:24 08-Glimmer
DR5 -0.40 dB -7.39 dB 3:06 09-You're a Trick
DR5 -0.40 dB -6.93 dB 4:04 10-Twisting the Aces
DR11 -0.55 dB -14.44 dB 3:24 11-Harmless
––––––––––––––––––––––––––––––––––––––––

Number of tracks: 11
Official DR value: DR6

Samplerate: 44100 Hz
Channels: 2
Bits per sample: 24
Bitrate: 1341 kbps
Codec: FLAC
================================================================================



Thanks to the Original customer.