Tags
Language
Tags

Hüm - Don´t Take It so Personally (2022) [Official Digital Download 24/96]

Posted By: pyatak
Hüm - Don´t Take It so Personally (2022) [Official Digital Download 24/96]

Hüm - Don´t Take It so Personally (2022) [Official Digital Download 24/96]
FLAC (tracks) 24-bit/96 kHz | Front Cover | Time - 59:34 minutes | 1,13 GB
Jazz | Label: Losen Records, Official Digital Download

Hüm invites the listener into a world where the European jazz tradition meets contemporary music. In the trio's musical expression, the Nordic jazz aesthetics collide with classically inspired textures, sometimes written in odd meters. The band's philosophy is based on an equal presence of instruments in interplay and a compositional way of thinking that originates from chamber music. In this debut album, Hüm strives to explore the possibilities of fitting improvisation into the composition in a way that blurs the distinction between improvised and through-composed music. Yet, the music is based on carefully elaborated structural elements. By creating the frames with distinct rhythmic, melodic, and harmonic devices, through-composed sections are surrounded by improvised parts characterized by interactive listening and open sonic landscapes. The process of composing this music is directly tailored to each member's personal expression and playing style. The concept is to create improvised music based on different musical vocabulary and divergent musical backgrounds of the trio members.

TRACKLIST

1. Hum - Dream Beliefs
2. Hum - Kringsjå blå
3. Hum - Don't take it so personally
4. Hum - After hours
5. Hum - Sedmaya
6. Hum - Day dreamer
7. Hum - Peculiar being
8. Hum - Arctic ice
9. Hum - Cvekje cafnalo

foobar2000 1.6.2 / Dynamic Range Meter 1.1.1
log date: 2022-01-31 10:08:45

––––––––––––––––––––––––––––––––––––––––
Analyzed: Hum / Don´t Take It so Personally
––––––––––––––––––––––––––––––––––––––––

DR Peak RMS Duration Track
––––––––––––––––––––––––––––––––––––––––
DR11 -1.89 dB -17.79 dB 3:10 01-Dream Beliefs
DR9 -0.33 dB -12.64 dB 6:48 02-Kringsjå blå
DR10 -0.33 dB -12.68 dB 6:08 03-Don't take it so personally
DR10 -0.33 dB -13.11 dB 6:09 04-After hours
DR11 -0.33 dB -14.31 dB 8:29 05-Sedmaya
DR10 -0.33 dB -14.05 dB 6:54 06-Day dreamer
DR9 -0.33 dB -12.01 dB 8:30 07-Peculiar being
DR11 -0.33 dB -15.55 dB 4:40 08-Arctic ice
DR11 -0.33 dB -15.12 dB 9:08 09-Cvekje cafnalo
––––––––––––––––––––––––––––––––––––––––

Number of tracks: 9
Official DR value: DR10

Samplerate: 96000 Hz
Channels: 2
Bits per sample: 24
Bitrate: 2527 kbps
Codec: FLAC
================================================================================



Thanks to the Original customer.