Tags
Language
Tags

Il Divo - Timeless (2018) [Official Digital Download]

Posted By: pyatak
Il Divo - Timeless (2018) [Official Digital Download]

Il Divo - Timeless (2018) [Official Digital Download]
FLAC (tracks) 24-bit/44.1 kHz | Front Cover | Time - 38:21 minutes | 452 MB
Classical | Label: Decca (UMO) Classics, Official Digital Download

Il Divo has stood out for its mixture of opera in songs of different genres, thus becoming an icon of the crossover groups of classical music. Since its debut in 2004, the group comprising the Spanish Carlos Marin, the Swiss tenor Urs Buhler, the Frenchman Sebastien Izambard and the American tenor David Miller, triumphed on the most important stages around the world and have sold millions of records as throughout his career.

Currently, Il Divo returns with a unique and unique material that brings together the songs of love and romance of all times.

For the past 15 years, at Il Divo we have taken songs from a wide variety of genres and made them unmistakably ours. Now we wanted to make a tournament through time and overcome all the differences between the styles of different areas, with Urs, when talking about the preparations of “Timeless”

“This album represents our tribute to the eternal nature of all music…” declared David.

While Carlos said, “Timeless is for me one of the most special records we have done so far in our career with IL DIVO. We select songs from all periods that have been reproduced in movies and amazing romantic soundtracks from the 30 to songs of our days such as the mythical song “Smile” based on an instrumental theme used in the soundtrack of the 1936 film Charlie Chaplin”.

TRACKLIST

01. Hola
02. All Of Me
03. Angels
04. Aquí Esperándote
05. Toi Et Moi
06. Grazie Amore Mio
07. Que Bonito Es Vivir
08. Love Me Tender
09. Unforgettable
10. Smile

foobar2000 1.3.16 / Dynamic Range Meter 1.1.1
log date: 2018-08-09 15:42:20

––––––––––––––––––––––––––––––––––––––––
Analyzed: Il Divo / Timeless
––––––––––––––––––––––––––––––––––––––––

DR Peak RMS Duration Track
––––––––––––––––––––––––––––––––––––––––
DR6 0.00 dB -7.90 dB 4:50 01-Hola
DR6 0.00 dB -8.95 dB 4:55 02-All Of Me
DR7 0.00 dB -9.42 dB 3:59 03-Angels
DR7 0.00 dB -9.89 dB 4:05 04-Aquí Esperándote
DR5 0.00 dB -8.05 dB 3:54 05-Toi Et Moi
DR5 0.00 dB -8.73 dB 4:08 06-Grazie Amore Mio
DR7 0.00 dB -9.75 dB 2:31 07-Que Bonito Es Vivir
DR6 0.00 dB -8.86 dB 3:15 08-Love Me Tender
DR7 0.00 dB -9.57 dB 3:23 09-Unforgettable
DR7 0.00 dB -10.04 dB 3:25 10-Smile
––––––––––––––––––––––––––––––––––––––––

Number of tracks: 10
Official DR value: DR6

Samplerate: 44100 Hz
Channels: 2
Bits per sample: 24
Bitrate: 1619 kbps
Codec: FLAC
================================================================================