Isabel Bayrakdarian – Armenian Songs for Children (2021) [Official Digital Download 24/192]

Posted By: pyatak
Isabel Bayrakdarian – Armenian Songs for Children (2021) [Official Digital Download 24/192]

Isabel Bayrakdarian – Armenian Songs for Children (2021) [Official Digital Download 24/192]
FLAC (tracks) 24-bit/192 kHz | Front Cover | Time - 73:00 minutes | 2,59 GB
Classical, Vocal | Label: Avie Records, Official Digital Download

Lebanese-born, Canadian-Armenian-American soprano Isabel Bayrakdarian is as celebrated for her beauty, dynamic presence, and style as for her strikingly multidimensional voice. With this deeply personal project, she gathers a selection of haunting and poignant lullabies that draw on the memories and experiences of the Armenian people. Twenty-nine tracks trace an arc from the Ottoman Empire through the Genocide and beyond, with songs and transcriptions by the country’s beloved folk composer Gomidas Vartabed, Parsegh Ganatchian who joined the diaspora in Lebanon, and Ganatchian’s contemporary Mihran Toumajan. For Isabel, these evocative songs span two centuries and five generations. Sung by her great-grandmother, grandmother and mother, and now to her own children, Isabel’s "Armenian Songs" have an appeal to children of all ages.

TRACKLIST

1. Isabel Bayrakdarian - Six Children's Songs
2. Isabel Bayrakdarian - Five Lullaby Fragments
3. Isabel Bayrakdarian - Sleep My Child Lullaby
4. Isabel Bayrakdarian - Dream
5. Isabel Bayrakdarian - You Are Beautiful Lullaby from Agn
6. Isabel Bayrakdarian - Children’s Prayer
7. Isabel Bayrakdarian - Song of the Partridge
8. Isabel Bayrakdarian - Little Wooden Horse
9. Isabel Bayrakdarian - The Swallow
10. Isabel Bayrakdarian - Bjingo
11. Isabel Bayrakdarian - The Swallow
12. Isabel Bayrakdarian - Serenade
13. Isabel Bayrakdarian - Nocturne
14. Isabel Bayrakdarian - Sleep My Child Lullaby
15. Isabel Bayrakdarian - Swinging Song Lullaby from Bithynia-Bardizag
16. Isabel Bayrakdarian - Cradle Song Lullaby from Bithynia-Bardizag
17. Isabel Bayrakdarian - Rocking Song Lullaby from Gesaria
18. Isabel Bayrakdarian - Bouncing Song from Gesaria
19. Isabel Bayrakdarian - The Scarecrow from Kharpert
20. Isabel Bayrakdarian - Two Playsongs from Agn
21. Isabel Bayrakdarian - Two Lullabies from Agn
22. Isabel Bayrakdarian - Rocking Song Lullaby from Khlat-Bitlis
23. Isabel Bayrakdarian - I Sing To You Lullaby from Dikranagerd
24. Isabel Bayrakdarian - Collection of Alphabet Songs from Medz Nor Kiugh-Bursa
25. Isabel Bayrakdarian - Four Children’s Songs from Van
26. Isabel Bayrakdarian - Come, My Nightingale Popular Lullaby
27. Isabel Bayrakdarian - Bouncing Song from Ani
28. Isabel Bayrakdarian - Cradle Song Lullaby from Ani
29. Isabel Bayrakdarian - Rocking Song Lullaby from Ani

foobar2000 1.6.2 / Dynamic Range Meter 1.1.1
log date: 2021-06-18 00:13:59

––––––––––––––––––––––––––––––––––––––––
Analyzed: Isabel Bayrakdarian / Isabel Bayrakdarian – Armenian Songs for Children
––––––––––––––––––––––––––––––––––––––––

DR Peak RMS Duration Track
––––––––––––––––––––––––––––––––––––––––
DR12 -1.21 dB -17.95 dB 4:56 01-Six Children's Songs
DR12 -3.94 dB -22.72 dB 4:09 02-Five Lullaby Fragments
DR10 -5.45 dB -21.86 dB 3:27 03-Sleep My Child Lullaby
DR12 -2.79 dB -20.59 dB 3:37 04-Dream
DR12 -4.41 dB -20.91 dB 3:06 05-You Are Beautiful Lullaby from Agn
DR13 -1.25 dB -19.55 dB 1:19 06-Children’s Prayer
DR13 -1.05 dB -18.55 dB 1:08 07-Song of the Partridge
DR13 -1.60 dB -18.19 dB 0:57 08-Little Wooden Horse
DR9 -1.30 dB -15.50 dB 3:00 09-The Swallow
DR10 -1.19 dB -19.54 dB 1:41 10-Bjingo
DR12 -1.87 dB -18.62 dB 2:19 11-The Swallow
DR12 -1.61 dB -18.32 dB 2:28 12-Serenade
DR12 -7.22 dB -23.89 dB 2:42 13-Nocturne
DR12 -4.30 dB -21.62 dB 3:57 14-Sleep My Child Lullaby
DR12 -4.55 dB -21.53 dB 3:04 15-Swinging Song Lullaby from Bithynia-Bardizag
DR11 -7.14 dB -21.66 dB 2:50 16-Cradle Song Lullaby from Bithynia-Bardizag
DR10 -7.47 dB -23.09 dB 1:59 17-Rocking Song Lullaby from Gesaria
DR11 -3.38 dB -17.76 dB 1:12 18-Bouncing Song from Gesaria
DR9 -2.50 dB -18.18 dB 0:38 19-The Scarecrow from Kharpert
DR12 -1.70 dB -17.99 dB 1:47 20-Two Playsongs from Agn
DR11 -4.66 dB -19.64 dB 2:39 21-Two Lullabies from Agn
DR12 -4.86 dB -22.55 dB 2:47 22-Rocking Song Lullaby from Khlat-Bitlis
DR11 -3.69 dB -21.00 dB 2:08 23-I Sing To You Lullaby from Dikranagerd
DR12 -3.82 dB -21.41 dB 2:33 24-Collection of Alphabet Songs from Medz Nor Kiugh-Bursa
DR12 -4.61 dB -20.25 dB 3:54 25-Four Children’s Songs from Van
DR11 -3.53 dB -20.27 dB 3:20 26-Come, My Nightingale Popular Lullaby
DR12 -5.12 dB -20.75 dB 1:47 27-Bouncing Song from Ani
DR9 -3.65 dB -18.38 dB 1:26 28-Cradle Song Lullaby from Ani
DR9 -6.18 dB -19.85 dB 2:10 29-Rocking Song Lullaby from Ani
––––––––––––––––––––––––––––––––––––––––

Number of tracks: 29
Official DR value: DR11

Samplerate: 192000 Hz
Channels: 2
Bits per sample: 24
Bitrate: 5033 kbps
Codec: FLAC
================================================================================



Thanks to the Original customer.