Tags
Language
Tags

Emanuele Segre, Orchestra I Pomeriggi musicali & Carlo Boccadoro - Italian Guitar Concertos (2020) [24/88]

Posted By: SERTiL
Emanuele Segre, Orchestra I Pomeriggi musicali & Carlo Boccadoro - Italian Guitar Concertos (2020) [24/88]

Emanuele Segre, Orchestra I Pomeriggi musicali & Carlo Boccadoro - Italian Guitar Concertos (2020)
FLAC (tracks) 24-bit/88.2 kHz | Time - 67:52 minutes | 2.01 GB
Studio Master, Official Digital Download | Artwork: Digital Booklet

Spain may be the ancestral home of the guitar, but Italy has produced wonderful guitarists and guitar music – witness Italian virtuoso Emanuele Segre and his new release on Delos, Italian Guitar Concertos. Segre brings his “rhythmic buoyancy,” “delicate touch,” and “persuasive playing” to a delightful programme ranging from Vivaldi and Giuliani concertos to new creations.

Beginning with an aria and concerto by Vivaldi, the father of the concerto, the album then features the Gran Quintetto by Mauro Giuliani. One of the greatest composers of music for classical guitar, Giuliani’s performances on the guitar were legendary – Giuliani knew Beethoven, who wrote guitar music especially for him. (And the piece itself is reminiscent of Beethoven, particularly the instrumental introduction.)

The album finishes with two enchanting and congenial contemporary works for guitar and orchestra: Giovanni Sollima’s dreamy The Black Owl, and Carlo Boccadoro’s haunting Dulcis memoria II.

Tracklist:
01. Cessate, omai cessate, RV 684: II. Ah, ch'infelice sempre (Arr. E. Segre)
02. Lute Concerto in D Major, RV 93 (Arr. for Guitar & Orchestra): I. Allegro giusto
03. Lute Concerto in D Major, RV 93 (Arr. for Guitar & Orchestra): II. Largo
04. Lute Concerto in D Major, RV 93 (Arr. for Guitar & Orchestra): III. Allegro
05. Gran quintetto, Op. 65 (Version for Guitar & String Orchestra): I. Introduzione
06. Gran quintetto, Op. 65 (Version for Guitar & String Orchestra): II. Tema e variazioni
07. Gran quintetto, Op. 65 (Version for Guitar & String Orchestra): III. Polonaise
08. The Black Owl
09. Dulcis memoria II

Personnel:
Emanuele Segre, classical guitar
Orchestra I Pomeriggi Musicali
Carlo Boccadoro, conductor

foobar2000 1.3.7 / Dynamic Range Meter 1.1.1
log date: 2020-01-09 23:23:30

––––––––––––––––––––––––––––––––––––––––
Analyzed: Emanuele Segre, Orchestra I Pomeriggi musicali & Carlo Boccadoro / Italian Guitar Concertos
––––––––––––––––––––––––––––––––––––––––

DR Peak RMS Duration Track
––––––––––––––––––––––––––––––––––––––––
DR16 -0.97 dB -22.34 dB 5:33 01-Cessate, omai cessate, RV 684: II. Ah, ch'infelice sempre (Arr. E. Segre)
DR13 -5.00 dB -21.60 dB 4:04 02-Lute Concerto in D Major, RV 93 (Arr. for Guitar & Orchestra): I. Allegro giusto
DR11 -12.16 dB -26.54 dB 5:23 03-Lute Concerto in D Major, RV 93 (Arr. for Guitar & Orchestra): II. Largo
DR12 -3.30 dB -20.44 dB 2:35 04-Lute Concerto in D Major, RV 93 (Arr. for Guitar & Orchestra): III. Allegro
DR14 -4.13 dB -23.34 dB 1:38 05-Gran quintetto, Op. 65 (Version for Guitar & String Orchestra): I. Introduzione
DR15 -3.83 dB -23.53 dB 7:49 06-Gran quintetto, Op. 65 (Version for Guitar & String Orchestra): II. Tema e variazioni
DR15 -3.62 dB -21.95 dB 9:01 07-Gran quintetto, Op. 65 (Version for Guitar & String Orchestra): III. Polonaise
DR17 -0.94 dB -22.03 dB 17:52 08-The Black Owl
DR16 -4.61 dB -25.39 dB 14:01 09-Dulcis memoria II
––––––––––––––––––––––––––––––––––––––––

Number of tracks: 9
Official DR value: DR14

Samplerate: 88200 Hz
Channels: 2
Bits per sample: 24
Bitrate: 4241 kbps
Codec: FLAC
================================================================================


Thanks to the Original customer.