Iván Fischer - Brahms- Symphony No. 3 & Serenade No. 2 (2021) [Official Digital Download 24/192]

Posted By: pyatak
Iván Fischer - Brahms- Symphony No. 3 & Serenade No. 2 (2021) [Official Digital Download 24/192]

Iván Fischer - Brahms- Symphony No. 3 & Serenade No. 2 (2021) [Official Digital Download 24/192]
FLAC (tracks) 24-bit/192 kHz | Front Cover | Time - 68:10 minutes | 2,55 GB
Classical | Label: Channel Classics Records, Official Digital Download

The Budapest Festival Orchestra was founded in 1983 by Iván Fischer and the late pianist and conductor Zoltán Kocsis. It has quickly become one of the leading orchestras in the world. Thanks to its virtuoso members, hand-picked young musicians, it stands out in terms of sound beauty and ensemble playing. The City of Budapest and the Hungarian Ministry of Culture have supported the orchestra from the very beginning. It quickly made a name for itself with top-class conductors and soloists as well as through numerous recordings and international tours.

Like István Kertész and Claudio Abbado in their respective complete recordings, Iván Fischer complements his recording of Symphony No. 3 with a serenade. The two Serenades, the first orchestral works of the young Brahms, show a very stylish approach, in which wind instruments are preferably used in an often pastoral atmosphere with folk accents. The first is written for large orchestra, while the Second Serenade presented on this album, dedicated to Clara Schumann, was set for winds and low strings.

The young Brahms ' great closeness to the Schumann couple is clearly evident in the opening theme of the 3rd Symphony, which sounds like a slightly modified echo of the beginning of Robert Schumann's "Rhenish" Symphony, as only a few commentators point out. Iván Fischer offers a rather melancholic reading of the 3rd Symphony, especially the Poco allegretto, which became popular through film and singing, especially with Yves Montand and Serge Gainsbourg. The concluding allegro, on the other hand, rages in joyful tumult and unreserved enthusiasm before dissolving into thin air, because this magnificent symphony closes in a disconcerting pianissimo that is very unusual for romantic symphonies.

This recording is the conclusion of a complete recording of Brahms ' symphonic work by Iván Fischer and the Hungarian musicians, whose artistic director he has been since their foundation in 1983. A fascinating series thanks to the golden timbres and the Austro-Hungarian style that fits perfectly with Brahms' music.

TRACKLIST

1. Iván Fischer - I.Allegro con brio
2. Iván Fischer - II. Andante
3. Iván Fischer - III. Poco allegretto
4. Iván Fischer - IV. Allegro
5. Iván Fischer - I. Allegro moderato
6. Iván Fischer - II. Scherzo
7. Iván Fischer - III. Adagio non troppo
8. Iván Fischer - IV. Quasi menuetto
9. Iván Fischer - V. Rondo

foobar2000 1.6.2 / Dynamic Range Meter 1.1.1
log date: 2021-06-10 23:17:57

––––––––––––––––––––––––––––––––––––––––
Analyzed: Iván Fischer / Brahms: Symphony No. 3 & Serenade No. 2
––––––––––––––––––––––––––––––––––––––––

DR Peak RMS Duration Track
––––––––––––––––––––––––––––––––––––––––
DR17 0.00 dB -22.09 dB 13:43 01-I.Allegro con brio
DR15 -2.52 dB -24.44 dB 8:29 02-II. Andante
DR14 -9.53 dB -26.42 dB 6:40 03-III. Poco allegretto
DR15 -1.50 dB -22.09 dB 8:36 04-IV. Allegro
DR12 -9.26 dB -27.97 dB 8:20 05-I. Allegro moderato
DR13 -8.10 dB -26.82 dB 2:58 06-II. Scherzo
DR13 -8.87 dB -28.32 dB 8:04 07-III. Adagio non troppo
DR12 -11.28 dB -29.95 dB 4:55 08-IV. Quasi menuetto
DR13 -7.56 dB -26.16 dB 6:32 09-V. Rondo
––––––––––––––––––––––––––––––––––––––––

Number of tracks: 9
Official DR value: DR14

Samplerate: 192000 Hz
Channels: 2
Bits per sample: 24
Bitrate: 4406 kbps
Codec: FLAC
================================================================================



Thanks to the Original customer.