Ivan Casanova e Seus Conjuntos - Um Olhar... Uma Dança... Um Amor (2019) [Official Digital Download]

Posted By: pyatak
Ivan Casanova e Seus Conjuntos - Um Olhar... Uma Dança... Um Amor (2019) [Official Digital Download]

Ivan Casanova e Seus Conjuntos - Um Olhar… Uma Dança… Um Amor (2019) [Official Digital Download]
FLAC (tracks) 24-bit/44.1 kHz | Front Cover | Time - 30:11 minutes | 299 MB
Bossa Nova, Latin Jazz | Label: RevOla, Official Digital Download

Voltamos a falar aqui sobre música instrumental de qualidade e, ao mesmo tempo, voltamos a falar sobre grandes músicos que por problemas contratuais usavam pseudônimos para lançar seus discos por outras gravadoras entre o fim dos anos 50 e início dos anos 60.
Esse maravilhoso disco, lançado pelo selo Imperial, pertencente à Industrias Elétricas e Musicais (IEM) Fábrica Odeon S/A apresentava ao público IVAN CASANOVA E SEUS CONJUNTOS, mas, quem era na realidade esse músico? Era o grande pianista e organista WALTER WANDERLEY que, pelo menos por esse mesmo selo Imperial além de IVAN CASANOVA lançou um disco também como MIKE FALCÃO.

TRACKLIST

1 The Man Love (Remastered)
2 Chega de Saudade (Remastered)
3 El Reloj (Remastered)
4 Love Is The Tender Trap (Remastered)
5 Angustia (Remastered)
6 On The Sunny Side Of The Street (Remastered)
7 O Apito No Samba (Remastered)
8 Aquellos Ojos Verdes (Remastered)
9 No Taboleiro Da Baiana (Remastered)
10 Stormy Weather (Remastered)
11 As Pastorinhas (Remastered)
12 Te Quiero Dijiste (Remastered)

foobar2000 1.3.16 / Dynamic Range Meter 1.1.1
log date: 2019-05-15 19:58:36

––––––––––––––––––––––––––––––––––––––––
Analyzed: Ivan Casanova e Seus Conjuntos / Um Olhar… Uma Dança… Um Amor
––––––––––––––––––––––––––––––––––––––––

DR Peak RMS Duration Track
––––––––––––––––––––––––––––––––––––––––
DR12 -1.16 dB -16.01 dB 3:26 01-The Man Love
DR11 -1.78 dB -14.71 dB 3:01 02-Chega de Saudade
DR11 -1.04 dB -14.53 dB 2:14 03-El Reloj
DR13 -1.83 dB -16.58 dB 2:37 04-Love Is The Tender Trap
DR13 -0.69 dB -15.55 dB 2:13 05-Angustia
DR13 -0.86 dB -16.58 dB 2:21 06-On The Sunny Side Of The Street
DR12 -1.23 dB -15.63 dB 3:08 07-O Apito No Samba
DR12 -0.94 dB -15.92 dB 2:23 08-Aquellos Ojos Verdes
DR12 -1.48 dB -16.36 dB 2:28 09-No Taboleiro Da Baiana
DR11 -1.81 dB -15.73 dB 1:53 10-Stormy Weather
DR12 -2.05 dB -16.82 dB 2:00 11-As Pastorinhas
DR13 -2.12 dB -16.79 dB 2:28 12-Te Quiero Dijiste
––––––––––––––––––––––––––––––––––––––––

Number of tracks: 12
Official DR value: DR12

Samplerate: 44100 Hz
Channels: 2
Bits per sample: 24
Bitrate: 1431 kbps
Codec: FLAC
================================================================================



Thanks to the Original customer.