Netherlands Bach Society, Jos Van Veldhoven - J.S. Bach: Mass in B minor (2007) [Official Digital Download 24/192]

Posted By: SERTiL
Netherlands Bach Society, Jos Van Veldhoven - J.S. Bach: Mass in B minor (2007) [Official Digital Download 24/192]

Netherlands Bach Society, Jos Van Veldhoven - J.S. Bach: Mass in B minor (2007)
FLAC (tracks) 24-bit/192 kHz | Time - 105:21 minutes | 3.24 GB
Studio Master, Official Digital Download | Artwork: Digital booklet

Sometimes you come across a performance that may not be exactly to your taste, but is nonetheless so persuasive of its type that it disarms criticism. This is one. It's not quite a "one to a part" interpretation of the work, but with 10 choristers and eight strings, it is intimate, and that always risks minimizing the majesty that Bach built into the Sanctus, the eight-part Osanna, and the choruses with trumpets and drums. Jos van Veldhoven addresses this issue head-on, compensating with swift tempos and a light, dance-like treatment of rhythm that's wholly captivating. His handling of solo vs. ripieno vocal parts in the choruses is particularly imaginative and texturally varied (try the opening of the Credo, given to the soloists). The result has great vitality and conveys real joy (once past the opening Kyrie, of course).

Veldhoven also has an impressive lineup of soloists, with alto Matthew White's Qui sedes and bass Peter Harvey's Quoniam making this account of the Gloria one of the most polished and satisfying on disc (and tenor Charles Daniels is pretty terrific in the Benedictus as well).

Channel Classics, the industry leader in turning out state-of-the-art multichannel recordings, provides sound that matches the performance: bright, transparent, but still warm and solid. It's also worth mentioning that the packaging and presentation, with a massive booklet produced in association with the Museum Catharijneconvent, is beyond deluxe, making this set a beautiful gift candidate. I do prefer performances, even those using period instruments, on a larger scale, but within the wide range of legitimate interpretive options in this work (which we must remember Bach never heard in its final form), Veldhoven delivers a well-nigh perfect realization of his enlivening vision, and he deserves full credit for his achievement. –David Hurwitz, ClassicsTodaycom

TRACKLIST

Johann Sebastian Bach (1685-1750)

Disc: 1
1. Mass in B minor, for soloists, chorus & orchestra, BWV 232 (BC E1): Part 1, Missa. Kyrie. Kyrie eleison
2. Mass in B minor, for soloists, chorus & orchestra, BWV 232 (BC E1): Part 1, Missa. Kyrie. Christe eleison
3. Mass in B minor, for soloists, chorus & orchestra, BWV 232 (BC E1): Part 1, Missa. Kyrie. Kyrie elseison
4. Mass in B minor, for soloists, chorus & orchestra, BWV 232 (BC E1): Part 1, Missa. Gloria. Gloria in excelsis
5. Mass in B minor, for soloists, chorus & orchestra, BWV 232 (BC E1): Part 1, Missa. Gloria. Et in terra pax
6. Mass in B minor, for soloists, chorus & orchestra, BWV 232 (BC E1): Part 1, Missa. Gloria. Laudamus te
7. Mass in B minor, for soloists, chorus & orchestra, BWV 232 (BC E1): Part 1, Missa. Gloria. Gratias agimus ribi
8. Mass in B minor, for soloists, chorus & orchestra, BWV 232 (BC E1): Part 1, Missa. Gloria. Domine Deus
9. Mass in B minor, for soloists, chorus & orchestra, BWV 232 (BC E1): Part 1, Missa. Gloria. Qui tollis peccata mundi
10. Mass in B minor, for soloists, chorus & orchestra, BWV 232 (BC E1): Part 1, Missa. Gloria. Qui sedes ad dexteram
11. Mass in B minor, for soloists, chorus & orchestra, BWV 232 (BC E1): Part 1, Missa. Gloria. Quoniam tu solus Sanctus
12. Mass in B minor, for soloists, chorus & orchestra, BWV 232 (BC E1): Part 1, Missa. Gloria. Cum Sancto Spiritu

Disc: 2
1. Mass in B minor, for soloists, chorus & orchestra, BWV 232 (BC E1): Part 2, Symbolum Nicenum. Credo. Credo in unum Deum
2. Mass in B minor, for soloists, chorus & orchestra, BWV 232 (BC E1): Part 2, Symbolum Nicenum. Credo. Patrem omnipotentem
3. Mass in B minor, for soloists, chorus & orchestra, BWV 232 (BC E1): Part 2, Symbolum Nicenum. Credo. Et in unum Dominum
4. Mass in B minor, for soloists, chorus & orchestra, BWV 232 (BC E1): Part 2, Symbolum Nicenum. Credo. Et incarnatus est
5. Mass in B minor, for soloists, chorus & orchestra, BWV 232 (BC E1): Part 2, Symbolum Nicenum. Credo. Crucifixus
6. Mass in B minor, for soloists, chorus & orchestra, BWV 232 (BC E1): Part 2, Symbolum Nicenum. Credo. Et resurrexit
7. Mass in B minor, for soloists, chorus & orchestra, BWV 232 (BC E1): Part 2, Symbolum Nicenum. Credo. Et in Spiritum Sanctum
8. Mass in B minor, for soloists, chorus & orchestra, BWV 232 (BC E1): Part 2, Symbolum Nicenum. Credo. Confiteor
9. Mass in B minor, for soloists, chorus & orchestra, BWV 232 (BC E1): Part 2, Symbolum Nicenum. Credo. Et expecto resurrectionem
10. Mass in B minor, for soloists, chorus & orchestra, BWV 232 (BC E1): Part 3, Sanctus. Sanctus. Sanctus
11. Mass in B minor, for soloists, chorus & orchestra, BWV 232 (BC E1): Part 4, Osanna, Benedictus, Agnus Dei et Dona Nobis Pacem. Osanna
12. Mass in B minor, for soloists, chorus & orchestra, BWV 232 (BC E1): Part 4, Osanna, Benedictus, Agnus Dei et Dona Nobis Pacem. Benedi
13. Mass in B minor, for soloists, chorus & orchestra, BWV 232 (BC E1): Part 4, Osanna, Benedictus, Agnus Dei et Dona Nobis Pacem. Osanna
14. Mass in B minor, for soloists, chorus & orchestra, BWV 232 (BC E1): Part 4, Osanna, Benedictus, Agnus Dei et Dona Nobis Pacem. Agnus
15. Mass in B minor, for soloists, chorus & orchestra, BWV 232 (BC E1): Part 4, Osanna, Benedictus, Agnus Dei et Dona Nobis Pacem. Agnus

PERSONNEL
Netherlands Bach Society
Jos Van Veldhoven (conductor)

foobar2000 1.3.7 / Dynamic Range Meter 1.1.1
log date: 2017-06-20 17:22:15

––––––––––––––––––––––––––––––––––––––––
Analyzed: Netherlands Bach Society / Mass in B Minor
––––––––––––––––––––––––––––––––––––––––

DR Peak RMS Duration Track
––––––––––––––––––––––––––––––––––––––––
DR14 0.00 dB -17.96 dB 10:42 01-Bach - Mass in b minor - Kyrie eleison
DR13 -3.48 dB -21.23 dB 5:02 02-Bach - Mass in b minor - Christe eleison
DR13 0.00 dB -17.22 dB 3:42 03-Bach - Mass in b minor - Kyrie eleison
DR12 0.00 dB -15.77 dB 1:36 04-Bach - Mass in b minor - Gloria in excelsis
DR13 0.00 dB -17.69 dB 4:23 05-Bach - Mass in b minor - Et in terra pax
DR15 -4.60 dB -25.11 dB 3:58 06-Bach - Mass in b minor - Laudamus te
DR11 0.00 dB -15.62 dB 2:41 07-Bach - Mass in b minor - Gratias agimus tibi
DR15 -5.97 dB -24.82 dB 5:27 08-Bach - Mass in b minor - Domine Deus
DR12 -1.56 dB -21.41 dB 3:07 09-Bach - Mass in b minor - Qui tollis peccata mundi
DR14 -5.32 dB -23.14 dB 4:19 10-Bach - Mass in b minor - Qui sedes ad dexteram Patris
DR12 -5.02 dB -19.78 dB 4:35 11-Bach - Mass in b minor - Quoniam tu solus Sanctus
DR11 0.00 dB -15.14 dB 3:33 12-Bach - Mass in b minor - Cum Sancto Spiritu
DR12 -3.15 dB -18.65 dB 1:56 13-Bach - Mass in b minor - Credo in unum Deum
DR12 -0.54 dB -17.45 dB 1:53 14-Bach - Mass in b minor - Patrem omnipotentem
DR14 -3.73 dB -24.07 dB 4:39 15-Bach - Mass in b minor - Et in unum Dominum
DR12 -3.79 dB -20.95 dB 3:03 16-Bach - Mass in b minor - Et incarnatus est
DR12 -2.09 dB -21.89 dB 3:21 17-Bach - Mass in b minor - Crucifixus
DR14 0.00 dB -18.18 dB 3:37 18-Bach - Mass in b minor - Et resurrexit
DR13 -10.19 dB -26.78 dB 5:20 19-Bach - Mass in b minor - Et in Spiritum Sanctum
DR13 -2.39 dB -20.24 dB 4:10 20-Bach - Mass in b minor - Confiteor
DR12 0.00 dB -15.43 dB 2:04 21-Bach - Mass in b minor - Et expecto resurrectionem
DR13 0.00 dB -16.43 dB 4:47 22-Bach - Mass in b minor - Sanctus
DR14 -0.22 dB -18.65 dB 2:23 23-Bach - Mass in b minor - Osanna in excelsis
DR14 -8.03 dB -25.88 dB 4:29 24-Bach - Mass in b minor - Benedictus, qui venit
DR15 0.00 dB -19.10 dB 2:25 25-Bach - Mass in b minor - Osanna in excelsis
DR15 -3.36 dB -26.20 dB 5:11 26-Bach - Mass in b minor - Agnus Dei
DR11 0.00 dB -15.89 dB 3:11 27-Bach - Mass in b minor - Dona nobis pacem
––––––––––––––––––––––––––––––––––––––––

Number of tracks: 27
Official DR value: DR13

Samplerate: 192000 Hz
Channels: 2
Bits per sample: 24
Bitrate: 4413 kbps
Codec: FLAC
================================================================================


Thanks to the Original customer.