Jana Herzen - Nothing But Love (2020) [Official Digital Download]

Posted By: SERTiL
Jana Herzen - Nothing But Love (2020) [Official Digital Download]

Jana Herzen - Nothing But Love (2020)
FLAC (tracks) 24-bit/44.1 kHz | Time - 50:44 minutes | 611 MB
Studio Master, Official Digital Download | Artwork: Front Cover

With this soulful and timeless song-cycle of world and blues-tinged folk, jazz and pop originals, singer-songwriter Jana Herzen (who happens also to be the A&R mind behind the Multi-Grammy winning Motéma label), reaches new heights as a musical storyteller, composer and guitarist.

Featuring lush quintet arrangements played by an ace band with a powerful chemistry, Herzen’s Nothing But Love surprises at each turn as it juxtaposes isolation, loss and melancholy, alongside eye-winking fun, romantic abandon and deep soul redemption and paint a sophisticated portrait of love in many guises.

For fans of Eva Cassidy, Susanne Vega, Sting, Paul Simon, Bonnie Raitte. Shawn Colvin, Joni Mitchell, Norah Jones, Melody Gardot.

Tracklist:
1. Nothing But Love (4:22)
2. Speak (4:47)
3. On the Outside (3:41)
4. My Latin Love (NBL Version) (4:51)
5. Night Blooming Jasmine (NBL Version) (5:23)
6. With An Open Heart (3:57)
7. Lightening the Load (2:31)
8. High Time (3:21)
9. Like a River (3:59)
10. Thinking of You (5:05)
11. Precious Air (NBL Version) (3:39)
12. In the Name of Love (5:16)

foobar2000 1.3.7 / Dynamic Range Meter 1.1.1
log date: 2020-01-17 11:43:57

––––––––––––––––––––––––––––––––––––––––
Analyzed: Jana Herzen / Nothing But Love
––––––––––––––––––––––––––––––––––––––––

DR Peak RMS Duration Track
––––––––––––––––––––––––––––––––––––––––
DR7 -0.16 dB -8.94 dB 4:22 01-Nothing But Love
DR8 -0.15 dB -9.71 dB 4:47 02-Speak
DR7 -0.16 dB -9.12 dB 3:41 03-On the Outside
DR9 -0.17 dB -10.89 dB 4:51 04-My Latin Love (NBL Version)
DR9 -0.19 dB -11.13 dB 5:23 05-Night Blooming Jasmine (NBL Version)
DR8 -0.14 dB -10.07 dB 3:57 06-With An Open Heart
DR8 -0.10 dB -10.05 dB 2:31 07-Lightening the Load
DR7 -0.04 dB -8.80 dB 3:21 08-High Time
DR7 -0.14 dB -8.74 dB 3:59 09-Like a River
DR7 -0.20 dB -9.89 dB 5:05 10-Thinking of You
DR7 -0.19 dB -9.42 dB 3:39 11-Precious Air (NBL Version)
DR8 -0.17 dB -10.27 dB 5:16 12-In the Name of Love
––––––––––––––––––––––––––––––––––––––––

Number of tracks: 12
Official DR value: DR8

Samplerate: 48000 Hz
Channels: 2
Bits per sample: 24
Bitrate: 1604 kbps
Codec: FLAC
================================================================================


Thanks to the Original customer.